<?xml version="1.0" standalone="no"?>
<!DOCTYPE svg PUBLIC "-//W3C//DTD SVG 1.1//EN" "http://www.w3.org/Graphics/SVG/1.1/DTD/svg11.dtd" >
<svg xmlns="http://www.w3.org/2000/svg">
<metadata>
This is a custom SVG webfont generated by Font Squirrel.
Copyright   : Copyright c Andrew Paglinawan 2008 All rights reserved
Designer    : Andrew Paglinawan
Foundry     : Andrew Paglinawan
</metadata>
<defs>
<font id="webfontaEJ3th29" horiz-adv-x="1255" >
<font-face units-per-em="2048" ascent="1638" descent="-410" />
<missing-glyph horiz-adv-x="614" />
<glyph unicode=" "  horiz-adv-x="614" />
<glyph unicode="&#x09;" horiz-adv-x="614" />
<glyph unicode="&#xa0;" horiz-adv-x="614" />
<glyph unicode="!" horiz-adv-x="516" d="M190 113v41q0 47 34 79.5t79 32.5t78 -32.5t33 -79.5v-41q0 -47 -32 -80t-79 -33t-80 33t-33 80zM190 494v827q0 47 34 80t79 33t78 -33t33 -80v-827q0 -47 -32 -80t-79 -33t-80 33t-33 80z" />
<glyph unicode="&#x22;" horiz-adv-x="839" d="M141 887l37 438q4 49 36 82t81 33h80q31 0 49 -18.5t18 -49.5q0 -12 -8 -45l-149 -455q-23 -63 -74 -63q-31 0 -51.5 21.5t-18.5 56.5zM592 887l35 438q4 49 35.5 82t80.5 33h82q29 0 47.5 -18.5t18.5 -49.5q0 -12 -8 -45l-150 -455q-23 -63 -74 -63q-31 0 -50 21.5 t-17 56.5z" />
<glyph unicode="#" horiz-adv-x="1433" d="M92 436q0 43 31 75t76 32h131l61 356h-119q-43 0 -74.5 32t-31.5 75t31.5 74.5t74.5 31.5h156l41 244q6 39 36 63.5t70 24.5q49 0 81 -38t26 -87l-37 -207h322l41 244q6 39 36.5 63.5t71.5 24.5q49 0 81 -39t24 -86l-35 -207h94q43 0 74.5 -30.5t31.5 -75.5 q0 -43 -31.5 -75t-74.5 -32h-131l-62 -356h117q45 0 76 -31t31 -76q0 -43 -31 -74.5t-76 -31.5h-153l-43 -252q-6 -39 -36 -63.5t-71 -24.5q-49 0 -82 38t-24 87l39 215h-322l-43 -252q-6 -37 -36 -62.5t-73 -25.5q-49 0 -80.5 36.5t-23.5 88.5l37 215h-94q-45 0 -76 30.5 t-31 75.5zM549 543h319l62 356h-320z" />
<glyph unicode="$" horiz-adv-x="1294" d="M125 262q0 47 32.5 80t80.5 33q39 0 67 -23q152 -111 303 -137v403q-229 59 -333.5 155.5t-104.5 266.5q0 164 119 269.5t311 122.5v43q0 37 26.5 62.5t63.5 25.5t62.5 -26t25.5 -62v-45q170 -20 318 -113q61 -35 61 -98q0 -47 -33.5 -80t-81.5 -33q-31 0 -61 18 q-111 68 -211 90v-393q233 -59 338.5 -158.5t105.5 -263.5q0 -166 -118.5 -273.5t-317.5 -125.5v-123q0 -37 -25.5 -62.5t-62.5 -25.5t-63.5 25.5t-26.5 62.5v127q-227 25 -420 160q-55 35 -55 98zM412 1055q0 -68 41 -111t155 -80v363q-96 -8 -146 -55t-50 -117zM770 207 q98 10 150.5 57t52.5 121q0 70 -44 115t-159 80v-373z" />
<glyph unicode="&#x26;" horiz-adv-x="1425" d="M100 492q0 217 160 360q-57 92 -57 201q0 158 111.5 269.5t269 111.5t269.5 -112t112 -269q0 -47 -33 -80t-80 -33t-81 33t-34 80q0 66 -45 109.5t-108.5 43.5t-108.5 -45t-45 -108q0 -80 66 -125q35 -29 44 -71t-14 -81h-2v-2q-2 -4 -2 -6l-22 -23q-4 -4 -6 -4 q-2 -2 -7 -4q-2 0 -5 -2t-5 -4q-68 -33 -108.5 -97.5t-40.5 -141.5q0 -111 76.5 -188t187 -77t188.5 77t78 188v12q-125 -2 -156 -39q-16 -16 -16 -45q0 -8 2 -14v-9q12 -45 -10.5 -86t-67.5 -55q-16 -4 -30 -4q-86 0 -109 82q-12 18 -12 86q-4 123 84 207q109 104 319 104 q45 0 68 -2h8q14 0 23 2q4 2 6 4v15q0 16 -2 30q-12 45 12 85t71.5 50.5t87.5 -15.5t48 -71q10 -33 10 -79q2 -57 -22.5 -111.5t-65.5 -85.5q-10 -4 -23 -12q2 -16 2 -49q0 -205 -144 -348.5t-349 -143.5t-348.5 143.5t-143.5 348.5z" />
<glyph unicode="'" horiz-adv-x="471" d="M141 887l37 438q4 49 36 82t81 33h80q31 0 50 -18.5t19 -49.5q0 -12 -8 -45l-149 -455q-23 -63 -76 -63q-31 0 -51.5 21.5t-18.5 56.5z" />
<glyph unicode="(" horiz-adv-x="880" d="M145 627q0 246 52 422q63 213 194 315q104 82 244 82q53 0 91 -38t38 -91t-38 -92t-91 -39q-51 0 -86 -27q-39 -29 -72 -100q-76 -154 -71 -432q-4 -205 40 -351q39 -135 103 -182q35 -27 86 -28q53 0 91 -38t38 -91.5t-38 -91.5t-91 -38h-4q-137 0 -240 80 q-92 72 -149 197q-97 213 -97 543z" />
<glyph unicode=")" horiz-adv-x="880" d="M123 -63.5q0 53.5 38 91.5t91 38q51 2 86 28q63 47 102 182q45 145 41 351q4 279 -71 432q-33 72 -72 100q-35 27 -86 27q-53 0 -91 39t-38 92t38 91t91 38q139 0 244 -82q131 -102 194 -315q51 -176 51 -422q0 -330 -96 -543q-57 -125 -149 -197q-102 -80 -240 -80h-4 q-53 0 -91 38t-38 91.5z" />
<glyph unicode="*" horiz-adv-x="880" d="M156 969q0 43 47 63l180 78l-180 80q-47 20 -47 63q0 27 20.5 47.5t48.5 20.5q23 0 49 -21l154 -112l-20 182q-4 33 14 55.5t49 22.5t49.5 -21.5t14.5 -54.5l-21 -184l154 112q27 20 51 21q27 0 47 -19.5t20 -48.5q0 -43 -47 -63l-180 -80l180 -78q47 -20 47 -65 q0 -27 -20.5 -47.5t-48.5 -20.5q-18 0 -49 21l-154 112l21 -182q4 -33 -14.5 -55.5t-49.5 -22.5t-49.5 21.5t-13.5 54.5l20 184l-154 -112q-31 -20 -51 -21q-27 0 -47 20.5t-20 49.5z" />
<glyph unicode="+" horiz-adv-x="1269" d="M131 721q0 45 33 79t80 34h291v284q0 49 33.5 83t82.5 34q47 0 82 -34t35 -83v-284h291q47 0 79.5 -34t32.5 -79q0 -47 -32.5 -80t-79.5 -33h-291v-284q0 -49 -35 -83t-82 -34q-49 0 -82.5 33.5t-33.5 83.5v284h-291q-47 0 -80 33t-33 80z" />
<glyph unicode="," horiz-adv-x="471" d="M111 -240q0 45 47 56q145 47 139 184q-49 14 -83 51t-34 88v17q0 59 39 98t100 39q70 0 109 -48t39 -132v-23q0 -195 -100 -299q-92 -88 -193 -88q-63 0 -63 57z" />
<glyph unicode="-" horiz-adv-x="835" d="M135 627q0 51 36 87t85 36h385q49 0 85 -36t36 -87q0 -49 -36 -85t-85 -36h-385q-49 0 -85 36t-36 85z" />
<glyph unicode="." horiz-adv-x="471" d="M168 137.5q0 63.5 44 108.5t107.5 45t108.5 -45t45 -108.5t-45 -107.5t-108.5 -44t-107.5 44t-44 107.5z" />
<glyph unicode="/" horiz-adv-x="864" d="M173 69q-17 44 1 87l502 1194q18 43 61 60t88 -1q41 -16 58.5 -60t-0.5 -85l-502 -1196q-29 -68 -105 -68q-25 0 -40 8q-46 17 -63 61z" />
<glyph unicode="0" horiz-adv-x="1454" d="M133 717q4 291 139 489q150 227 381 228q115 0 213.5 -62.5t165.5 -165.5q137 -205 137 -489.5t-137 -489.5q-68 -102 -167 -164.5t-212 -62.5q-229 0 -381 227q-135 199 -139 490zM360 717q0 -215 99 -363q88 -127 194 -127q104 0 191 127q98 147 98 363q0 213 -98 364 q-88 129 -191 125q-102 4 -194 -125q-99 -151 -99 -364z" />
<glyph unicode="1" horiz-adv-x="686" d="M81 1199q11 46 52 69l252 149l4 2l4 2q2 0 5 3t5.5 3t6.5 1.5t6 1.5q2 2 8 2q4 2 14 2h6h2h15q2 -2 8 -2q4 0 12 -5q6 0 8 -2q8 -6 13 -6q4 -4 8 -6q2 0 4 -2l4 -4l8 -8q4 -4 6 -8l9 -9l2 -4q0 -2 2 -2v-4q4 -8 4 -10t1 -5t3 -5v-6l2 -5q0 -10 4 -14v-6v-1208 q0 -47 -33.5 -80t-81 -33t-80 33t-32.5 80v1007l-82 -47q-25 -16 -57 -16q-63 0 -97 57q-26 39 -15 85z" />
<glyph unicode="2" horiz-adv-x="1208" d="M102 118q2 46 37 79l606 548q86 78 86 197q0 102 -67 178q-78 86 -197 86q-100 0 -178 -67l-63 -58q-35 -33 -81 -29.5t-79 38.5q-31 35 -29 81t37 78l64 58q135 127 329 127q219 0 365 -162q127 -135 127 -330q0 -219 -162 -364l-387 -351h436q47 0 80 -33.5t33 -80.5 t-33 -80t-80 -33h-725h-2h-2q-53 0 -84 37q-33 35 -31 81z" />
<glyph unicode="3" horiz-adv-x="1249" d="M156 233.5q0 49.5 34.5 82t81.5 32.5t82 -33q80 -80 195 -79.5t196 79.5q82 82 82 197t-82 195q-76 78 -194 81q-51 -4 -84 37q-2 0 -2 2q-35 33 -36 81t32 83l209 213h-332q-47 0 -81 34t-34 83q0 47 34 81t81 34h604q49 0 83 -34t34 -81q0 -27 -15 -55q-12 -20 -20 -29 l-258 -266q86 -39 143 -101q150 -147 150 -358t-149.5 -360.5t-360.5 -149.5q-209 0 -359 150q-34 32 -34 81.5z" />
<glyph unicode="4" horiz-adv-x="1359" d="M110.5 368q-4.5 46 24.5 83l758 942l4 4q4 4 6 8q6 2 10 6q0 2 5 4l4 2q8 4 12 4q4 6 8 6l12 5q6 0 9 2h14h4h4h12q4 -2 11 -2q2 -2 6 -3.5t6 -1.5l4 -2h4q2 -2 6 -4l4 -4q2 0 5.5 -2t5.5 -4q2 0 2 -2q6 0 6 -4l8 -8l2 -4q2 -4 4 -4q4 -4 8 -11q0 -4 4 -8l4 -12 q0 -2 1.5 -4t1.5 -4q2 -4 2 -13q0 -2 1 -5t1 -5v-6v-827h20q47 0 81 -33t34 -80t-34 -80t-81 -33h-20v-155q0 -47 -33 -80t-80 -33t-80 33t-33 80v155h-641h-2h-2q-43 0 -69 25q-39 29 -43.5 75zM461 494h407v505z" />
<glyph unicode="5" horiz-adv-x="1239" d="M135 230.5q0 48.5 35 82.5q33 35 81 35t83 -35q80 -82 196 -82q115 0 195 82q82 82 82 195q0 117 -82 197q-78 80 -195 79q-119 0 -196 -79q-35 -33 -82 -33t-82 33q-4 4 -11 13t-12 13q0 6 -2 6q0 6 -4 11q0 4 -1 8t-1 6v2l-2 2q-4 18 0 35l62 530q10 53 51 82l8 4l2 2 q2 2 4 2q25 12 53 13h605q49 0 82.5 -34t33.5 -83q0 -47 -33.5 -81t-82.5 -34h-504l-25 -203q68 18 137 19q211 0 359 -150q150 -147 149 -360q0 -209 -149 -358q-147 -150 -359 -150h-4q-213 0 -356 150q-35 32 -35 80.5z" />
<glyph unicode="6" horiz-adv-x="1314" d="M131 565q0 231 72 420q88 233 264 350q135 90 307 97q47 2 81 -30t38 -79q2 -45 -31 -80t-80 -39q-104 -2 -192 -57q-78 -53 -129 -143q-10 -16 -27 -54q92 41 197 41q207 0 352 -145.5t145 -350t-145 -350t-352 -145.5q-193 0 -334 128t-160 316q0 2 -2 5q-4 77 -4 116z M362 496q0 -113 78 -191t190.5 -78t191.5 78t79 191q0 111 -79 190.5t-191 79.5q-111 0 -190 -79.5t-79 -190.5z" />
<glyph unicode="7" horiz-adv-x="1202" d="M131 1321q0 47 33 80t80 33h702q12 0 20.5 -2t43.5 -17l6 -6q6 -2 8 -8l8 -8q2 -4 6 -8.5t4 -10.5q2 -4 9 -10l2 -4v-6q0 -2 2 -5t2 -6q4 -23 0 -45q-2 -8 -6 -20l-512 -1210q-27 -68 -105 -68q-25 0 -43 8q-43 20 -60.5 63.5t-0.5 84.5l442 1050h-528q-45 0 -79 34 t-34 81z" />
<glyph unicode="8" horiz-adv-x="1290" d="M113 487q0 125 58 232.5t161 175.5q-68 86 -68 203q0 139 99.5 237.5t240.5 98.5q137 0 236.5 -98.5t99.5 -237.5q0 -117 -68 -203q100 -68 160 -175.5t60 -232.5q0 -201 -143.5 -344t-344.5 -143q-203 0 -347 143t-144 344zM336 487q2 -109 80 -186.5t188 -77.5 q109 0 186.5 78t77.5 186.5t-77.5 187.5t-186.5 79q-111 0 -188.5 -78t-79.5 -189zM487 1098q0 -47 34 -82t83 -35q45 0 79 35t34 82q0 45 -33 78.5t-80 33.5q-49 0 -83 -32.5t-34 -79.5z" />
<glyph unicode="9" horiz-adv-x="1314" d="M135 938q0 205 145.5 350.5t352.5 145.5q193 0 334 -128t159 -317q0 -2 2 -4q4 -78 5 -117q0 -231 -72 -419q-88 -233 -264 -351q-135 -90 -308 -96q-47 -2 -80.5 29.5t-37.5 79.5q-2 45 30.5 79.5t79.5 38.5q104 2 193 58q78 53 129 143q10 16 26 53q-92 -41 -196 -41 q-207 0 -352.5 145.5t-145.5 350.5zM362 938q0 -111 79 -190.5t192 -79.5q111 0 189.5 79.5t78.5 190.5q0 113 -78 190.5t-190.5 77.5t-191.5 -77.5t-79 -190.5z" />
<glyph unicode=":" horiz-adv-x="491" d="M178 137.5q0 63.5 44 108.5t107.5 45t108.5 -45t45 -108.5t-45 -107.5t-108.5 -44t-107.5 44t-44 107.5zM178 952.5q0 63.5 44 108.5t107.5 45t108.5 -45t45 -108.5t-45 -107.5t-108.5 -44t-107.5 44t-44 107.5z" />
<glyph unicode=";" horiz-adv-x="491" d="M121 -262q0 53 61 67q78 18 120 69.5t38 125.5q-59 14 -101 60t-42 108v4q0 74 47 121t123 47q86 0 134 -61.5t48 -167.5v-9q0 -215 -121 -335q-98 -98 -229 -99q-78 0 -78 70zM197 932v4q0 74 51 124t127 50t127 -50t51 -124v-4q0 -74 -51 -124t-127 -50t-127 50 t-51 124z" />
<glyph unicode="&#x37e;" horiz-adv-x="491" d="M121 -262q0 53 61 67q78 18 120 69.5t38 125.5q-59 14 -101 60t-42 108v4q0 74 47 121t123 47q86 0 134 -61.5t48 -167.5v-9q0 -215 -121 -335q-98 -98 -229 -99q-78 0 -78 70zM197 932v4q0 74 51 124t127 50t127 -50t51 -124v-4q0 -74 -51 -124t-127 -50t-127 50 t-51 124z" />
<glyph unicode="&#x3c;" horiz-adv-x="1269" d="M123 711v6l2 4v14q0 2 2 6l2 2q2 2 2 8.5t2 8.5q0 2 1 2t1 2q2 2 5 9t5 9q0 4 5 4q4 8 12 15l575 583q39 37 93.5 37t91.5 -37q39 -39 39 -92t-39 -92l-486 -489l486 -490q39 -41 39 -93t-39 -91q-41 -37 -91 -37q-53 0 -94 37l-575 584q-6 2 -10 12l-7 4q-2 2 -6 16 q-6 2 -6 9q0 2 -1 6t-3 6q0 4 -2 6l-2 4v14q0 2 -1 5.5t-1 7.5z" />
<glyph unicode="=" horiz-adv-x="1269" d="M162 604q0 31 21.5 52.5t52.5 21.5h380q31 0 51.5 -21.5t20.5 -52.5t-20.5 -52.5t-51.5 -21.5h-380q-31 0 -52.5 21.5t-21.5 52.5zM162 834q0 29 21.5 50t52.5 21h380q31 0 51.5 -21.5t20.5 -49.5q0 -31 -20.5 -51.5t-51.5 -20.5h-380q-31 0 -52.5 20.5t-21.5 51.5z" />
<glyph unicode="&#x3e;" horiz-adv-x="1269" d="M195 128q0 52 38 93l486 490l-486 489q-39 39 -38.5 92.5t38.5 91.5q37 37 91.5 37t93.5 -37l575 -583l15 -15l2 -4q2 -4 5 -9t5 -9q0 -2 1 -2t1 -2l6 -19v-2q2 -2 2 -4v-14l2 -4v-6v-6l-2 -5v-16l-2 -2v-2q-2 -4 -4 -10t-2 -8l-2 -3v-4q0 -2 -4 -8t-6 -10q0 -2 -2 -2 l-15 -14l-575 -584q-37 -37 -92 -37q-51 0 -93 37q-38 39 -38 91z" />
<glyph unicode="?" horiz-adv-x="1093" d="M94 1145q-10 39 10 76q55 96 154.5 154.5t216.5 58.5q178 0 305 -126t127 -304q0 -152 -94 -267.5t-238 -150.5v-133q0 -43 -28.5 -72t-71.5 -29q-41 0 -70.5 29t-29.5 72v213q0 2 1 2t1 2q-2 2 -2 4q0 39 29.5 69.5t70.5 30.5q96 0 165 67.5t69 162.5q0 96 -69 162.5 t-165 66.5q-131 0 -196 -113q-23 -37 -63 -47t-77 10q-35 23 -45 62zM375 100v37q0 41 29.5 71t70.5 30q43 0 71.5 -30t28.5 -71v-37q0 -43 -28.5 -71.5t-71.5 -28.5q-41 0 -70.5 28.5t-29.5 71.5z" />
<glyph unicode="@" horiz-adv-x="2007" d="M109 719q0 295 208.5 505t505.5 210t507 -210t210 -505q0 -182 -80 -330v-2l-16 -27q-16 -25 -35 -45q-78 -78 -160 -98q-29 -6 -53 -6q-47 -2 -90 20.5t-66 55.5q-23 29 -32 61q-86 -45 -185 -45q-170 0 -282.5 123t-112.5 293t113 289q115 125 282 125q166 0 285 -125 q113 -119 113 -289v-17v-8v-243q2 2 6 5t8 7q20 20 27 33q51 102 51 223q0 203 -142.5 345t-347.5 142q-201 0 -344 -143t-143 -344q0 -203 143.5 -346.5t343.5 -143.5q66 0 123 13q45 12 86 -11.5t51 -68.5q10 -47 -13 -87t-69 -52q-90 -23 -178 -23q-297 2 -505.5 212 t-208.5 507zM655 719q0 -82 52 -137q47 -51 116 -52q68 0 119 52q51 57 51 137q0 78 -51 135q-55 51 -119 51q-66 0 -116 -51q-52 -55 -52 -135z" />
<glyph unicode="A" horiz-adv-x="1323" d="M133 154l453 1206q14 33 44 53q27 19 58 19h6h8q72 0 101 -72l452 -1206q7 -21 8 -41q0 -24 -11 -47q-19 -43 -64 -60q-16 -6 -39 -6q-78 0 -105 72l-100 266h-498l-100 -266q-29 -72 -106 -72q-20 0 -39 6q-45 16 -65 60q-11 23 -10 47q0 20 7 41zM528 563h332l-166 441 z" />
<glyph unicode="B" horiz-adv-x="1216" d="M213 113v1208q0 47 33 80t80 33h6h2h282q162 0 276 -114t114 -276q0 -129 -78 -233q94 -59 150.5 -157.5t56.5 -213.5q0 -182 -128 -311t-311 -129h-362l-2 2q-2 0 -4 -2h-2q-47 0 -80 33t-33 80zM440 227h256q88 2 149.5 63.5t61.5 149.5t-61.5 148.5t-149.5 62.5h-256 v-424zM440 879h176q68 0 115 49t47 116.5t-47 114.5t-115 47h-176v-327z" />
<glyph unicode="C" horiz-adv-x="1579" d="M150 737q2 303 223 519.5t528 218.5q268 0 473 -160q37 -31 43 -78q1 -8 1 -16q0 -38 -23 -70q-31 -39 -80 -45q-9 -1 -17 -1q-38 0 -67 23q-137 113 -330 113q-211 0 -369 -147q-150 -154 -149 -357q0 -211 149 -356q158 -147 369 -148q188 0 330 113q28 22 66 22 q9 0 18 -1q49 -6 80 -43q24 -32 23 -71q0 -8 -1 -16q-6 -48 -43 -77q-205 -160 -473 -160q-307 0 -528 216t-223 521z" />
<glyph unicode="D" horiz-adv-x="1472" d="M213 113v1208q0 47 33 80t80 33h241q297 0 506 -210t209 -505q0 -299 -209 -509t-506 -210h-241q-47 0 -80 33t-33 80zM440 227h127q203 2 345.5 144.5t142.5 347.5q0 201 -142.5 344t-345.5 143h-127v-979z" />
<glyph unicode="E" horiz-adv-x="1214" d="M213 113v1208q0 47 33 80t80 33h2h4h663q45 0 79 -33t34 -80t-34 -81t-79 -34h-555v-375h478q45 0 78.5 -33.5t33.5 -78.5q0 -47 -32.5 -81t-79.5 -34h-478v-377h555q45 0 79 -33.5t34 -80.5q0 -45 -34 -79t-79 -34h-663l-4 2l-2 -2q-47 0 -80 33t-33 80z" />
<glyph unicode="F" horiz-adv-x="1239" d="M213 113v1208q0 47 33 80t80 33h2h4h663q45 0 79 -34t34 -79q0 -47 -34 -81t-79 -34h-555v-375h478q45 0 78.5 -33.5t33.5 -78.5q0 -47 -32.5 -81t-79.5 -34h-478v-491q0 -47 -33.5 -80t-80.5 -33t-80 33t-33 80z" />
<glyph unicode="G" horiz-adv-x="1667" d="M150 735q0 307 221 523.5t534 216.5q264 0 467 -160q39 -29 45 -78q1 -9 1 -17q0 -39 -23 -71q-29 -37 -78 -43q-8 -1 -16 -1q-40 0 -72 25q-143 111 -324 111q-223 0 -368 -149q-154 -147 -154 -357q0 -205 154 -352q145 -150 368 -150q145 0 281 78v281h-293 q-47 0 -82 35t-35 82q0 49 34 81.5t83 32.5h403h2h2q49 0 84 -32.5t35 -81.5v-453q0 -8 -3 -20.5t-3 -14.5t-2 -5t-2 -5v-2q-10 -29 -39 -49q-205 -160 -465 -160q-313 0 -534 214t-221 521z" />
<glyph unicode="H" horiz-adv-x="1452" d="M213 113v1208q0 47 33 80t80 33t80.5 -33t33.5 -80v-492h531v492q0 47 32.5 80t79.5 33t81 -33t34 -80v-1208q0 -47 -34 -80t-81 -33t-79.5 33t-32.5 80v491h-531v-491q0 -47 -33.5 -80t-80.5 -33t-80 33t-33 80z" />
<glyph unicode="I" horiz-adv-x="624" d="M227 113v1208q0 47 33 80t80 33t81 -33t34 -80v-1208q0 -47 -34 -80t-81 -33t-80 33t-33 80z" />
<glyph unicode="J" horiz-adv-x="1216" d="M106 352q-6 18 -5 36q0 26 13 51q22 42 64 55q19 6 37 5q26 0 50 -12q42 -20 57 -65q29 -86 102.5 -140.5t165.5 -54.5q117 0 199.5 83t82.5 198v813q0 47 34 80t81 33t80 -33t33 -80v-813q0 -211 -149.5 -359.5t-360.5 -148.5q-168 0 -301.5 98t-182.5 254z" />
<glyph unicode="K" horiz-adv-x="1464" d="M213 113v1198q0 45 33 78.5t80 33.5t79.5 -33.5t32.5 -78.5v-588l664 666q33 33 80 32.5t79.5 -33t32.5 -78.5t-32 -81l-451 -449l455 -596q26 -30 26 -68q0 -6 -1 -14q-5 -47 -42 -75q-29 -27 -71 -27q-49 0 -84 41l-443 580l-213 -218v-290q0 -47 -32.5 -80t-79.5 -33 t-80 33t-33 80z" />
<glyph unicode="L" horiz-adv-x="1153" d="M213 113v1208q0 47 33 80t80 33t80.5 -33t33.5 -80v-1094h555q45 0 79 -33.5t34 -80.5q0 -45 -34 -79t-79 -34h-663h-4h-2q-47 0 -80 33t-33 80z" />
<glyph unicode="M" horiz-adv-x="1728" d="M213 113v1208q0 47 33 80t80 33h6q59 0 90 -48l407 -565l408 565q35 47 92 48h2q47 -2 81 -35t34 -78v-1208q0 -45 -34 -79t-81 -34t-79.5 33t-32.5 80v862l-295 -410q-35 -47 -93 -47h-2h-2q-59 0 -94 47l-293 410v-862q0 -47 -33.5 -80t-80.5 -33t-80 33t-33 80z" />
<glyph unicode="N" horiz-adv-x="1579" d="M215 113v1190v2q-4 59 45 94q31 21 65 21q9 0 19 -2q45 -7 72 -44l661 -915v844q0 45 33 77.5t78 32.5t78.5 -32.5t33.5 -77.5v-1190q0 -47 -33.5 -80t-78.5 -33q-49 0 -84 41q-8 8 -10 12l-656 910v-850q0 -45 -32.5 -79t-77.5 -34q-47 0 -80 33t-33 80z" />
<glyph unicode="O" horiz-adv-x="1740" d="M150 737q0 303 202 518q203 219 502 220q139 0 268 -58.5t221 -161.5q207 -221 207 -518q0 -301 -207 -518q-92 -102 -221 -160.5t-268 -58.5q-145 0 -275 58.5t-227 160.5q-202 213 -202 518zM383 737q0 -213 139 -356q137 -147 332 -148q186 0 324 148q139 145 139 356 q0 209 -139 359q-135 145 -324 145q-197 0 -332 -145q-139 -146 -139 -359z" />
<glyph unicode="P" horiz-adv-x="1193" d="M213 113v1208q0 47 33 80t80 33h2h364q182 0 311.5 -129t129.5 -312q0 -180 -129.5 -308t-311.5 -128h-252v-444q0 -47 -33.5 -80t-80.5 -33t-80 33t-33 80zM440 784h252q88 0 149.5 61.5t63.5 147.5q-2 90 -63.5 151.5t-149.5 61.5h-252v-422z" />
<glyph unicode="Q" horiz-adv-x="1728" d="M135 698q0 303 205 529q211 227 512 227q307 0 508 -227q209 -219 209 -529q0 -313 -209 -534q-96 -100 -227 -162l-48 -18q135 -74 230 -74q98 0 201 78q32 26 71 25q8 0 16 -1q48 -6 78 -45q26 -32 26 -72q0 -8 -1 -16q-6 -49 -47 -82q-168 -129 -338 -129h-6 q-168 0 -375 123q-55 31 -125 31q-43 0 -89 -13.5t-56 -21.5q-30 -17 -58 -17q-32 0 -61 23l-12 4q-2 2 -4 2q-25 35 -29 47q-13 27 -13 54q0 19 7 38q16 44 61 66l6 4q-125 59 -227 156q-205 227 -205 534zM377 698q0 -217 141 -368q135 -147 334 -148q195 0 338 148 q141 152 141 368q0 219 -141 365q-143 150 -338 149q-201 0 -334 -149q-141 -146 -141 -365z" />
<glyph unicode="R" horiz-adv-x="1280" d="M184 113v1208q0 47 33 80t80 33h2h365q182 0 310 -129t128 -312q0 -203 -160 -336q43 -33 72 -75q68 -98 67 -222v-22q0 -54 9 -98q53 -16 71 -70q6 -19 6 -36q0 -26 -12 -50q-20 -41 -65 -57q-25 -6 -46 -7h-2q-45 0 -79 23q-39 23 -66 72q-43 90 -43 245q-2 53 -25 89 q-16 29 -61 59q-53 35 -115 49h-241v-444q0 -47 -34 -80t-81 -33t-80 33t-33 80zM412 784h252q88 0 149 61.5t61 147.5q0 88 -61 150.5t-149 62.5h-252v-422z" />
<glyph unicode="S" horiz-adv-x="1366" d="M146 279q-1 7 0 14q0 36 22 63q27 33 72 38q7 1 13 1q37 0 64 -24q194 -158 387 -158h5q154 0 256 76q88 66 88 147q0 35 -19 66q-20 35 -61 61q-94 61 -281 96h-4q-160 31 -264 80q-129 61 -191 160q-47 76 -47 168q0 178 164 299q150 109 355 109q90 0 184 -31 t140 -57.5t122 -75.5q35 -25 44 -68q3 -12 3 -23q0 -30 -18 -55q-23 -37 -66 -46q-12 -3 -23 -2q-30 0 -57 18q-96 66 -171 98.5t-158 32.5q-135 0 -230 -70q-78 -57 -78 -129q0 -35 15 -57q16 -27 55 -54q84 -57 256 -90h4q172 -35 283 -86q141 -70 204 -170 q49 -78 50 -174q0 -190 -177 -317q-160 -117 -378 -117q-268 2 -525 205q-33 27 -38 72z" />
<glyph unicode="T" horiz-adv-x="1327" d="M102 1321q0 47 33 80t80 33h875q47 0 79.5 -33t32.5 -80t-33.5 -81t-78.5 -34h-326v-1093q0 -47 -33 -80t-80 -33t-79.5 33t-32.5 80v1093h-324q-47 0 -80 34t-33 81z" />
<glyph unicode="U" horiz-adv-x="1667" d="M215 592v729q0 47 33 80t80 33t80.5 -33t33.5 -80v-729q0 -150 106.5 -257.5t258 -107.5t258 106.5t106.5 258.5v729q0 47 34 80t81 33t80 -33t33 -80v-729q0 -244 -173 -418t-419 -174t-419 173t-173 419z" />
<glyph unicode="V" horiz-adv-x="1536" d="M138 1349q17 44 63 60q21 9 42 10q20 0 42 -9q43 -17 61 -60l399 -949l400 949q18 43 62 60q21 8 42 9q22 0 43 -10q43 -16 61 -60q9 -23 9 -45q0 -21 -8 -40l-506 -1196l-8 -17q0 -2 -2 -2l-7 -6q-4 -4 -4 -6q-2 -4 -4 -6t-6 -5t-6 -6l-4 -2q-2 0 -7 -4t-9 -6 q-2 0 -5 -2q-4 0 -16 -4h-4q-8 -2 -21 -2q-14 0 -20 2h-4q-8 4 -16 4l-3 2h-2l-18 12h-2q-2 2 -14 11l-2 2v4q-8 8 -11 12q-2 0 -2 2q-6 12 -10 17l-502 1196q-9 21 -9 43q0 21 8 42z" />
<glyph unicode="W" horiz-adv-x="2256" d="M145 1264q-8 21 -8 41q0 22 9 45q17 43 61 59q21 9 43 10q21 0 42 -9q44 -17 60 -60l402 -949l264 629q29 70 106 70q76 0 107 -70l264 -629l399 949q18 43 62 60q21 8 42 9q23 0 46 -10q41 -16 58 -60q8 -21 9 -42q0 -22 -10 -43l-502 -1194q-4 -12 -10 -19l-2 -2 q-2 -4 -10 -12v-4l-2 -2q-8 -4 -14 -11h-2l-19 -12h-2q-2 0 -2 -2q-4 0 -16 -4h-4q-6 -2 -21 -2q-12 0 -18 2h-7q-12 4 -14 4q-2 2 -4 2q-8 2 -18 12h-2q-2 2 -7.5 5.5t-7.5 5.5t-4 6q0 2 -4 6t-4 6l-4 2q-4 2 -8 19l-269 635l-268 -635q-2 -6 -8 -19l-2 -2l-12 -12 q0 -2 -3 -4v-2q-4 -2 -12 -11h-4q-2 -2 -8 -6t-8 -6h-2q-2 0 -2 -2q-8 0 -17 -4h-6q-6 -2 -18 -2q-14 0 -21 2h-6q-12 4 -14 4q-2 2 -4 2q-8 4 -19 12h-2q-2 2 -6 5.5t-8 5.5q-2 2 -4 6q-2 2 -5 6t-6 6v2q-2 2 -5 9.5t-5 9.5z" />
<glyph unicode="X" horiz-adv-x="1478" d="M165 95q-2 10 -2 19q0 35 21 64l389 533l-389 528q-21 31 -21 65q0 9 2 19q7 45 46 72q29 23 65 23q9 0 18 -2q46 -7 73 -46l346 -471l344 471q29 39 73 46l18 2q35 0 66 -23q37 -27 44 -72q2 -10 2 -19q0 -34 -21 -65l-389 -528l389 -533q21 -29 21 -64q0 -9 -2 -19 q-7 -46 -44 -72q-33 -23 -65 -23q-55 0 -92 47l-344 473l-346 -473q-37 -47 -91 -47q-37 0 -65 23q-39 26 -46 72z" />
<glyph unicode="Y" horiz-adv-x="1236" d="M127 1323q6 45 45 74q31 23 66 23q9 0 18 -2q45 -7 72 -46l350 -479l350 479q29 39 75 46l18 2q35 0 65 -23q37 -27 44 -73q2 -10 1 -19q0 -35 -21 -64l-419 -575v-553q0 -47 -33 -80t-80 -33q-45 0 -79 33t-34 80v553l-415 575q-24 30 -24 66q0 8 1 16z" />
<glyph unicode="Z" horiz-adv-x="1366" d="M145 106v7v2q0 10 2 14v10q2 2 3 4q2 4 2 7v4q2 4 2 6q6 4 6 8q2 2 6 10h2l752 1028h-662q-47 0 -80 34t-33 81t33 80t80 33h883h2h14q2 0 4 -1t4 -1q4 0 7.5 -1t5.5 -1t4 -2.5t4 -2.5q4 0 10 -6q2 -2 5 -4t5 -2h2l6 -6l9 -8l4 -4q2 -2 2 -4q6 -2 8 -9q4 -8 6 -10 q0 -4 4 -8q0 -4 2 -8v-4q4 -4 4 -11q2 -6 2 -12v-8v-14q-2 -4 -2 -8.5t-2 -7.5t-2 -5l-4 -12l-2 -2q-2 -2 -2 -4q-4 -8 -6 -11v-4l-754 -1026h660q47 0 80.5 -33.5t33.5 -80.5t-33.5 -80t-80.5 -33h-883q-12 0 -20 2q-4 0 -7 2q-2 0 -6 1t-8 1l-6 6q-2 0 -10 4l-8 4v3 q-2 0 -7 4q-6 6 -8 10q-4 2 -8 6l-4 4q-2 2 -2 4t-2 6l-2 4q0 2 -3 5.5t-3 5.5q-2 2 -2 6t-2 6l-3 2v6q0 4 -1 8t-1 6z" />
<glyph unicode="[" horiz-adv-x="880" d="M201 -143v1454q0 51 34.5 87t86.5 36h421q39 0 69 -29t30 -70q0 -39 -29 -67.5t-70 -28.5h-305v-1311h305q41 0 70 -28.5t29 -67.5q0 -41 -30 -69.5t-69 -28.5h-421q-51 0 -86 36t-35 87z" />
<glyph unicode="\" horiz-adv-x="917" d="M148.5 1349q17.5 44 58.5 60q45 18 88 1t61 -60l502 -1194q18 -43 1 -87t-62 -61q-16 -8 -41 -8q-76 0 -105 68l-501 1196q-19 41 -1.5 85z" />
<glyph unicode="]" horiz-adv-x="880" d="M113 -168q0 41 27.5 68.5t68.5 27.5h307v1311h-307q-41 0 -68.5 27.5t-27.5 68.5t28.5 70t67.5 29h422q51 0 87 -36t36 -87v-1454q0 -51 -36 -87t-87 -36h-422q-39 0 -67.5 28.5t-28.5 69.5z" />
<glyph unicode="^" horiz-adv-x="1024" d="M164 1040q0 29 24 62l195 266q51 74 125 74h18q72 0 127 -74l195 -266q23 -35 22 -62q0 -41 -57 -41q-47 0 -77.5 18.5t-71.5 72.5l-148 190l-147 -190q-41 -53 -72 -72t-76 -19q-57 0 -57 41z" />
<glyph unicode="_" horiz-adv-x="1228" d="M-49 -231.5q0 38.5 28.5 67.5t67.5 29h1237q39 0 67.5 -29t28.5 -67.5t-28.5 -67.5t-67.5 -29h-1237q-39 0 -67.5 29t-28.5 67.5z" />
<glyph unicode="`" horiz-adv-x="1024" d="M334 1456q0 29 48 54.5t99 25.5q61 0 99 -59l116 -181q18 -27 19 -45q0 -43 -64 -43q-86 0 -143 56l-139 131q-35 30 -35 61z" />
<glyph unicode="a" horiz-adv-x="1267" d="M82 510q0 215 139 360q143 154 348 154q145 0 273 -90q10 39 38.5 64.5t67.5 25.5q45 0 77 -33t32 -78v-403v-401q0 -45 -32 -77t-77 -32q-39 0 -67.5 24.5t-38.5 63.5q-125 -88 -273 -88q-205 0 -348 150q-139 149 -139 360zM301 510q0 -127 78 -211q74 -80 190 -80 q115 0 191 80q80 86 80 211q0 127 -80 211q-74 84 -191 84q-119 0 -190 -84q-78 -82 -78 -211z" />
<glyph unicode="b" horiz-adv-x="1351" d="M190 111v399v2v811q0 45 33 78t78 33q47 0 80 -33t33 -78v-385q123 86 274 86q207 0 352.5 -151.5t145.5 -362.5q0 -209 -145.5 -359.5t-352.5 -150.5q-150 0 -278 88q-8 -37 -38 -62.5t-71 -25.5q-45 0 -78 33t-33 78zM414 510q0 -121 82 -203q80 -84 192.5 -84 t192.5 84q82 82 82 203q0 125 -82 207q-80 84 -193 84t-192 -84q-82 -82 -82 -207z" />
<glyph unicode="c" horiz-adv-x="1169" d="M119 510q0 213 153.5 362.5t366.5 151.5q178 0 326 -113q35 -27 41 -72q1 -9 1 -18q0 -35 -20 -61q-31 -37 -75 -43q-8 -1 -15 -1q-35 0 -63 23q-90 66 -195 66q-123 0 -213 -88t-90 -207t89 -206t214 -87q104 0 195 66q27 22 61 21q8 0 16 -1q45 -6 76 -43 q20 -26 20 -60q0 -8 -1 -17q-6 -44 -41 -74q-152 -109 -326 -109q-213 0 -366.5 150.5t-153.5 359.5z" />
<glyph unicode="d" horiz-adv-x="1351" d="M123 510q0 211 145.5 362.5t352.5 151.5q152 0 274 -86v385q0 45 33 78t80 33q45 0 77.5 -33t32.5 -78v-811v-2v-399q0 -45 -32.5 -78t-77.5 -33q-41 0 -71 25.5t-38 62.5q-129 -88 -278 -88q-207 0 -352.5 150.5t-145.5 359.5zM346 510q0 -121 82 -203q80 -84 192.5 -84 t192.5 84q82 82 82 203q0 125 -82 207q-80 84 -192.5 84t-192.5 -84q-82 -82 -82 -207z" />
<glyph unicode="e" horiz-adv-x="1247" d="M119 512q2 211 146.5 361.5t352.5 150.5q201 0 341.5 -134t152.5 -341v-10q0 -14 -2 -19q-4 -37 -33.5 -59.5t-72.5 -22.5h-652q18 -88 70 -135q72 -82 196 -92l37 -2q106 0 176 53q31 33 82.5 33t71.5 -27q28 -30 28 -67q0 -32 -28 -66q-147 -135 -367 -135 q-209 2 -353 151.5t-146 360.5zM342 612h580q-18 72 -99.5 139.5t-204.5 77.5q-119 -6 -190.5 -73.5t-85.5 -143.5z" />
<glyph unicode="f" horiz-adv-x="741" d="M133 950q0 47 34 80t81 33h53v29q0 125 39 200q45 96 147 127q55 16 123 17q45 0 79 -34t34 -79q0 -47 -33 -81t-80 -34q-41 0 -53 -6q-8 -2 -12 -6q-4 0 -11.5 -27.5t-7.5 -76.5v-29h62q47 0 79.5 -33t32.5 -80q0 -45 -32.5 -78.5t-79.5 -33.5h-62v-723q0 -47 -32.5 -80 t-79.5 -33t-80 33t-33 80v723h-53q-47 0 -81 32.5t-34 79.5z" />
<glyph unicode="g" horiz-adv-x="1351" d="M123 508q0 207 143 364q145 152 348 152q156 0 275 -86q8 37 38.5 61.5t69.5 24.5q45 0 77 -31.5t32 -77.5v-407v-2v-381q0 -203 -144.5 -347.5t-347.5 -144.5q-117 0 -215 52q-41 18 -55 62q-6 18 -6 36q0 25 12 49q20 41 63 55q18 6 37 7q24 0 48 -11q53 -29 116 -28 q98 0 173 62.5t96 156.5q-119 -82 -269 -82q-205 0 -348 155q-143 148 -143 361zM344 508q0 -133 82 -211q74 -84 188.5 -84t194.5 84q78 82 78 211q0 125 -78 209q-82 88 -194.5 88t-188.5 -88q-82 -82 -82 -209z" />
<glyph unicode="h" d="M190 113v1208q0 47 33 80t80 33t81 -33t34 -80v-356q113 59 219 59q184 0 315 -132t131 -317v-462q0 -47 -32.5 -80t-79.5 -33t-80 33t-33 80v462q0 90 -64.5 155t-156.5 67q-90 -2 -153.5 -66.5t-65.5 -155.5v-462q0 -47 -34 -80t-81 -33q-37 0 -67.5 23.5t-40.5 60.5 q-5 17 -5 29z" />
<glyph unicode="i" horiz-adv-x="575" d="M193 111v798q0 49 31.5 81t78.5 32t79 -32t32 -81v-798q0 -47 -32 -79t-79 -32q-45 0 -77.5 33t-32.5 78zM193 1280v43q0 45 32.5 78t77.5 33q47 0 79 -32t32 -79v-43q0 -47 -32 -80t-79 -33q-45 0 -77.5 33t-32.5 80z" />
<glyph unicode="j" horiz-adv-x="509" d="M-10 -250q0 45 31.5 77t80.5 32v1052q0 47 33 80t78 33q47 0 79 -33t32 -80v-1052q0 -90 -64.5 -155.5t-157.5 -65.5q-49 0 -80.5 31.5t-31.5 80.5zM104 1278v41q0 49 33 81t80 32t79 -32t32 -81v-41q0 -45 -33 -79t-78 -34t-79 34t-34 79z" />
<glyph unicode="k" horiz-adv-x="1146" d="M190 113v1208q0 47 33 80t80 33t81 -33t34 -80v-709l420 420q33 33 80 33t79 -33q35 -33 35 -80t-35 -80l-307 -307l316 -379q25 -32 25 -72q0 -6 -1 -12q-4 -47 -41 -75q-29 -27 -71 -27q-55 0 -87 41l-301 365l-112 -113v-180q0 -47 -34 -80t-81 -33t-80 33t-33 80z " />
<glyph unicode="l" horiz-adv-x="509" d="M205 113v1208q0 47 32.5 80t80 33t81 -33t33.5 -80v-1208q0 -47 -33.5 -80t-81 -33t-80 33t-32.5 80z" />
<glyph unicode="m" horiz-adv-x="1947" d="M190 109v485v2v317q0 47 32 79t77 32q72 0 98 -61q104 61 219 61q197 0 322 -141q121 141 322 141q176 0 301 -126t125 -304v-485q0 -45 -32 -77t-77 -32t-78 31.5t-33 77.5v485q0 88 -61.5 149.5t-144.5 61.5q-86 0 -147.5 -59.5t-65.5 -145.5v-6v-485q0 -45 -32 -77 t-77 -32q-43 0 -77 33t-34 76v485v6q-2 84 -63.5 144.5t-147.5 60.5q-84 0 -145 -61.5t-61 -149.5v-485q0 -2 -1 -7.5t-1 -7.5v-6l-7 -12v-10q-33 -66 -102 -66q-4 0 -11 1t-9 1q-39 10 -64 39t-25 68z" />
<glyph unicode="n" d="M190 109v489v317q0 45 32 77t77 32q70 0 100 -63q100 63 217 63q178 0 303 -126t125 -300v-489q0 -45 -30.5 -77t-75.5 -32q-43 0 -76 31.5t-33 77.5v489q0 86 -62 146.5t-151 60.5q-86 0 -145 -60.5t-59 -146.5v-489q0 -12 -4 -21q-8 -37 -39 -62.5t-70 -25.5 q-45 0 -77 32t-32 77z" />
<glyph unicode="o" horiz-adv-x="1280" d="M143 510q0 201 142 358q150 156 352 156q207 0 342 -156q143 -154 143 -358q0 -221 -143 -360q-135 -156 -342 -156q-203 0 -352 156q-142 145 -142 360zM367 510q0 -127 73 -217q80 -76 197 -76q109 0 188 76q80 90 80 217t-80 213q-88 78 -188 78q-109 0 -197 -78 q-73 -86 -73 -213z" />
<glyph unicode="p" horiz-adv-x="1351" d="M190 -274v782v2v405q0 45 32 77t77 32q43 0 75 -24.5t38 -59.5q129 84 278 84q205 0 350.5 -151.5t145.5 -362.5t-145.5 -359.5t-350.5 -148.5q-158 0 -274 84v-360q0 -43 -34 -77t-83 -34q-43 0 -76 34t-33 77zM416 510q0 -133 80 -205q78 -86 194 -86q113 0 193 86 q80 80 80 205q0 117 -80 207q-80 84 -193 84q-117 0 -194 -84q-80 -80 -80 -207z" />
<glyph unicode="q" horiz-adv-x="1351" d="M123 512q0 211 145.5 361.5t352.5 150.5q143 0 278 -86q6 37 37 61.5t72 24.5q45 0 77.5 -33t32.5 -78v-401v-2v-784q0 -43 -32.5 -76t-77.5 -33q-47 0 -80 33t-33 76v360q-125 -86 -274 -86q-207 0 -352.5 149.5t-145.5 362.5zM344 512q0 -123 84 -207q80 -86 193 -86 q121 0 190 86q84 78 84 207q0 125 -84 203q-76 88 -190 88q-109 0 -193 -88q-84 -84 -84 -203z" />
<glyph unicode="r" horiz-adv-x="899" d="M190 109v806q0 45 32 76t77 31q47 0 80 -30.5t33 -76.5v-14q23 27 43 41q120 80 251 80h7q45 0 76.5 -30.5t31.5 -76.5q0 -43 -31.5 -75.5t-76.5 -32.5q-72 0 -123 -39q-53 -33 -94 -98q-43 -57 -84 -172v-389q0 -45 -33 -77t-80 -32q-45 0 -77 32t-32 77z" />
<glyph unicode="s" horiz-adv-x="1007" d="M118 214q-1 7 -1 14q0 37 24 65q27 37 74 41q6 1 12 0q40 0 68 -25q108 -90 220 -90h5q78 0 139 39q37 31 37 61q0 12 -6 21q-4 10 -26 25q-49 35 -164 57h-2q-109 20 -179 53q-92 45 -141 119q-35 57 -35 129q0 133 121 225q111 76 252 76q143 0 307 -113q37 -25 46 -68 q3 -13 3 -25q0 -30 -16 -58q-25 -37 -69 -46q-11 -2 -22 -3q-32 0 -60 20q-115 76 -189 76q-76 0 -123 -37q-33 -23 -33 -47q0 -10 5 -16q6 -10 22 -21q45 -31 150 -49l2 -2h2q109 -20 190 -60q98 -43 146 -120q39 -66 38 -136q0 -145 -129 -237q-119 -82 -266 -82 q-190 2 -364 141q-33 27 -38 73z" />
<glyph unicode="t" horiz-adv-x="819" d="M86 911q0 47 33 80t80 33h59v297q0 47 34 80t81 33t79.5 -33t32.5 -80v-297h52q47 0 80.5 -33t33.5 -80q0 -45 -33.5 -78.5t-80.5 -33.5h-52v-572q47 0 80 -33.5t33 -80.5t-33 -80t-80 -33q-94 0 -160.5 66.5t-66.5 160.5v572h-59q-47 0 -80 32.5t-33 79.5z" />
<glyph unicode="u" d="M170 426v489q0 43 31.5 76t77 33t77 -33t31.5 -76v-489q0 -88 60.5 -148.5t148.5 -60.5t150.5 60.5t64.5 148.5v489q0 43 30.5 76t76.5 33q43 0 76.5 -33t33.5 -76v-489q0 -174 -128 -300t-304 -126q-174 0 -300 125t-126 301z" />
<glyph unicode="v" horiz-adv-x="1191" d="M132 941q17 40 61 58q18 9 37.5 9.5t39.5 -9.5q41 -18 60 -59l235 -557l238 557q16 41 56 59q20 9 40.5 9.5t40.5 -9.5q43 -18 60 -58q8 -19 9 -39q0 -21 -10 -42l-335 -794q-4 -8 -9 -15l-2 -2q-2 -2 -6 -7t-6 -7l-2 -2l-12 -13q-2 0 -2 -2q-8 -8 -15 -10h-4v-2 q-8 0 -16 -4h-4q-8 -2 -21 -2q-10 0 -18 2h-4q-12 4 -17 4v2h-4q-4 2 -9 5t-9 5l-2 2l-13 13q-2 0 -4 2q-4 8 -10 14q-2 0 -2 2q-4 2 -8 15l-332 794q-9 21 -9 42q0 20 8 39z" />
<glyph unicode="w" horiz-adv-x="1763" d="M142 942q17 41 61 59q18 8 36 8q20 0 42 -9q41 -17 57 -60l242 -551l143 342q29 66 100 66q74 0 101 -66l145 -342l242 551q14 43 56 60q22 9 42 9t39 -8q43 -18 60 -59q8 -20 9 -40q0 -21 -10 -42l-338 -794l-8 -17l-2 -2q-2 -4 -10 -12l-4 -2q-8 -8 -12 -10 q0 -2 -1.5 -2.5t-1.5 -2.5q-14 -8 -18 -10q-2 0 -2 -2q-4 0 -16 -4h-4q-6 -2 -21 -2q-12 0 -18 2h-4q-8 4 -15 4l-2 2h-2q-8 4 -18 12v3q-2 2 -13 10q-4 0 -4 2q-8 8 -10 12q-2 0 -2 2l-8 17l-150 354l-145 -354q-2 -4 -10 -17v-2l-13 -12l-2 -2l-12 -13q-14 -10 -18 -12h-5 q-2 0 -2 -2q-8 0 -12 -4h-4q-8 -2 -20 -2q-14 0 -21 2h-6q-8 4 -12 4q-2 2 -4 2q-12 4 -19 12q-2 0 -2 3q-6 6 -12 10l-4 2q0 2 -4 6t-4 6q-2 0 -3 2q-2 2 -5 8t-5 9l-336 794q-9 21 -9 42q0 20 8 40z" />
<glyph unicode="x" horiz-adv-x="1167" d="M153 91q-2 10 -2 19q0 34 21 60l246 338l-246 336q-21 26 -21 58q0 9 2 19q7 44 42 68q29 21 61 21q9 0 17 -1q42 -7 71 -42l205 -275l205 275q29 35 72 42q9 2 19 1q34 0 64 -21q33 -25 40 -68q2 -9 2 -19q0 -33 -21 -58l-244 -336l244 -338q21 -27 21 -61q0 -9 -2 -19 q-7 -45 -39.5 -67.5t-65.5 -22.5q-45 0 -90 45l-205 281l-205 -281q-39 -45 -84 -45q-37 0 -65 23q-35 22 -42 68z" />
<glyph unicode="y" horiz-adv-x="1204" d="M106 432v483q0 45 32 77t75 32q47 0 78 -30.5t31 -78.5v-483q0 -88 62 -148.5t150.5 -60.5t149.5 60.5t61 148.5v483q0 47 31 78t76 31t78 -31.5t33 -77.5v-483v-291q0 -205 -142.5 -347t-347.5 -142q-109 0 -211 51q-43 18 -57 60q-6 18 -6 37q0 24 10 48q20 37 64 52 q18 6 35 6q24 0 46 -12q61 -29 119 -29q90 2 161 54t95 132q-86 -49 -194 -49q-176 0 -302.5 127t-126.5 303z" />
<glyph unicode="z" horiz-adv-x="1134" d="M125 109v2q0 2 1 7t1 7v8q2 2 2 4q2 4 2 6v7l2 4l6 6q0 4 6 10h2l461 637h-375q-43 0 -75.5 31.5t-32.5 77t32.5 77t75.5 31.5h592q2 0 6.5 -1t6.5 -1h10q2 0 5 -1t5 -3q2 0 6 -2h4l6 -6l13 -6l2 -3q4 0 4 -4l10 -10l6 -6q2 -4 6.5 -8t6.5 -4q0 -4 2 -7.5t2 -5.5 q2 -2 2 -10q0 -2 1 -5t3 -5v-12q0 -2 1 -4t1 -5v-2l-2 -10q0 -8 -2 -12q0 -6 -2 -10q0 -8 -6 -11v-6l-11 -10v-2l-462 -635h376q43 0 76 -31.5t33 -77t-33 -77t-76 -31.5h-592q-12 0 -20 2h-6q-8 4 -12 4l-9 4q-2 0 -4 2t-4 2q-2 2 -2 4l-2 2q-2 0 -2 3q-2 0 -6 4l-8 6 q-4 6 -8 10q-2 4 -7 8q-4 2 -4 8q-6 2 -6 11l-4 10q0 2 -1 4t-1 4v14q-2 3 -2 7z" />
<glyph unicode="{" horiz-adv-x="983" d="M113 588q0 41 27.5 68.5t76.5 29.5q104 4 148.5 56.5t44.5 166.5q0 18 -2 75.5t-2 72.5q0 158 87 252t314 143q47 10 80 -14.5t33 -69.5q0 -66 -58 -84q-141 -43 -184 -98.5t-43 -165.5q0 -20 2 -74.5t2 -77.5q0 -115 -53.5 -180t-159.5 -100q109 -35 161 -100.5 t52 -180.5q0 -23 -2 -77t-2 -74q0 -111 43 -166.5t184 -98.5q57 -18 58 -84q0 -45 -33 -69.5t-80 -13.5q-227 49 -314 143t-87 254q0 14 2 71.5t2 75.5q0 113 -45.5 166t-147.5 55q-49 2 -76.5 30t-27.5 69z" />
<glyph unicode="|" horiz-adv-x="585" d="M248 -174v1720q0 41 28.5 70t69.5 29t70.5 -29t29.5 -70v-1720q0 -41 -29.5 -69.5t-70.5 -28.5t-69.5 28.5t-28.5 69.5z" />
<glyph unicode="}" horiz-adv-x="983" d="M109 -193q0 66 59 84q141 43 183 98.5t42 166.5q0 20 -2 74.5t-2 76.5q0 115 53.5 180.5t159.5 100.5q-109 35 -161 100.5t-52 179.5q0 23 2 77t2 75q0 111 -42 166t-183 98q-59 18 -59 84q0 45 32.5 69.5t79.5 14.5q227 -49 314.5 -143.5t87.5 -251.5q0 -14 -2.5 -71.5 t-2.5 -76.5q0 -115 45.5 -167t149.5 -56q47 -2 74.5 -29.5t27.5 -68.5t-27.5 -68.5t-74.5 -30.5q-104 -2 -149.5 -55t-45.5 -166q0 -18 2.5 -75.5t2.5 -71.5q0 -160 -87 -254t-315 -143q-47 -10 -79.5 14t-32.5 69z" />
<glyph unicode="~" horiz-adv-x="942" d="M174 534.5q0 28.5 8 45.5q35 94 82 140t127 46q61 0 161.5 -40t131.5 -40q61 0 96 64q23 43 66 43q31 0 53.5 -21.5t22.5 -48.5q0 -29 -9 -47q-35 -94 -82 -140.5t-126 -46.5q-61 0 -162 41t-131 41q-61 0 -97 -65q-23 -41 -65 -41q-31 0 -53.5 20.5t-22.5 49z" />
<glyph unicode="&#xa1;" horiz-adv-x="516" d="M190 113v827q0 47 33 80t80 33t79 -33t32 -80v-827q0 -47 -33 -80t-78 -33t-79 33t-34 80zM190 1280v41q0 47 33 80t80 33t79 -33t32 -80v-41q0 -47 -33 -80t-78 -33t-79 33t-34 80z" />
<glyph unicode="&#xa2;" horiz-adv-x="1189" d="M127 608q0 217 156.5 369.5t375.5 155.5h9l65 155q18 43 61.5 60.5t88.5 -0.5q41 -16 58 -60.5t-1 -85.5l-51 -121q61 -31 102 -63q35 -27 41 -74t-18 -80q-33 -39 -77 -44t-81 24q-16 12 -53 33l-232 -555q39 -12 88 -13q106 0 197 66q35 29 80 22.5t78 -45.5 q25 -33 18.5 -78t-41.5 -75q-152 -111 -332 -111q-92 0 -174 29l-47 -111q-29 -68 -104 -67q-25 0 -41 8q-45 16 -62.5 60t0.5 87l60 142q-164 153 -164 372zM348 608q0 -76 39 -143l180 430q-96 -29 -157.5 -109t-61.5 -178z" />
<glyph unicode="&#xa3;" horiz-adv-x="1318" d="M135 88q0 68 68 90l104 31v360h-65q-45 0 -76 31t-31 76q0 43 31 74.5t76 31.5h65v189q0 229 127 356q123 127 344 127q244 0 400 -166q39 -39 39 -90t-36 -87t-89 -36q-55 0 -91 39q-100 106 -219 107q-90 0 -151 -58q-68 -72 -68 -198v-183h414q43 0 74.5 -31.5 t31.5 -74.5q0 -45 -31.5 -76t-74.5 -31h-414v-350h565q47 0 79 -31.5t32 -78.5q0 -45 -31.5 -77t-79.5 -32h-897q-43 0 -69.5 25.5t-26.5 62.5z" />
<glyph unicode="&#xa5;" horiz-adv-x="1404" d="M109 1325q0 49 35.5 84t88.5 35q72 0 119 -70l359 -534l362 532q47 72 115 72q51 0 86 -32t35 -85q0 -47 -31 -88l-381 -516h248q37 0 63.5 -26.5t26.5 -65.5q0 -37 -26.5 -63.5t-63.5 -26.5h-316v-150h316q37 0 63.5 -26.5t26.5 -65.5q0 -37 -26.5 -63.5t-63.5 -26.5 h-316v-98q0 -51 -34.5 -86t-86 -35t-86 34.5t-34.5 86.5v98h-316q-37 0 -63.5 26.5t-26.5 63.5q0 39 27 65.5t63 26.5h316v150h-316q-37 0 -63.5 26.5t-26.5 63.5q0 39 27 65.5t63 26.5h244l-377 516q-30 43 -30 86z" />
<glyph unicode="&#xa7;" horiz-adv-x="1294" />
<glyph unicode="&#xa8;" horiz-adv-x="1024" d="M272 1302.5q0 55.5 38 94.5t93.5 39t94.5 -39t39 -94.5t-39 -93.5t-94.5 -38t-93.5 38t-38 93.5zM682 1302.5q0 55.5 38 94.5t93 39t94 -39t39 -94.5t-39 -93.5t-94 -38t-93 38t-38 93.5z" />
<glyph unicode="&#xa9;" horiz-adv-x="1699" d="M109 713v4q0 305 217 523t526 218t524 -216t215 -521v-4q0 -305 -217 -523.5t-526 -218.5t-524 216.5t-215 521.5zM186 713q0 -276 190.5 -470t471.5 -194q283 0 474 195.5t191 472.5v4q0 276 -190 469.5t-471 193.5q-283 0 -474.5 -195.5t-191.5 -471.5v-4zM465 723v4 q0 168 112.5 284.5t284.5 116.5q158 0 266 -88q33 -23 33 -61q0 -33 -21.5 -54.5t-52.5 -21.5q-23 0 -49 21q-84 66 -176 65q-102 0 -171.5 -75.5t-69.5 -184.5v-4q0 -106 69.5 -183t172 -77t188.5 74q23 18 45 18q29 0 50 -21.5t21 -50.5q0 -33 -22 -51 q-125 -109 -287 -108q-168 0 -280.5 114.5t-112.5 282.5z" />
<glyph unicode="&#xaa;" horiz-adv-x="798" d="M119 1124q0 131 84 219q92 92 211 93q90 0 166 -54q10 53 63 54q29 0 48.5 -19.5t19.5 -46.5v-246v-241q0 -29 -19.5 -48.5t-48.5 -19.5q-25 0 -42 15.5t-21 39.5q-76 -55 -166 -55q-121 0 -211 94q-84 88 -84 215zM133 676q0 29 20.5 49t49.5 20h446q29 0 48.5 -20 t19.5 -49t-19.5 -49.5t-48.5 -20.5h-446q-29 0 -49.5 20.5t-20.5 49.5zM252 1124q0 -78 47 -129q51 -47 115 -47q61 0 116 47q47 53 48 129q0 78 -48 129q-47 49 -116 50q-72 0 -115 -50q-47 -47 -47 -129z" />
<glyph unicode="&#xab;" horiz-adv-x="1054" d="M113 541q0 37 28 71l258 334q39 49 95 49q41 0 69.5 -30.5t28.5 -71.5q0 -35 -27 -70l-217 -280l221 -287q25 -31 25 -68q0 -43 -29.5 -72.5t-72.5 -29.5q-53 0 -86 43l-265 340q-28 39 -28 72zM627 541q0 35 30 71l258 334q35 49 93 49q43 0 71.5 -29.5t28.5 -72.5 q0 -37 -29 -70l-215 -280l219 -287q27 -33 27 -68q-2 -43 -30.5 -72.5t-71.5 -29.5q-53 0 -86 43l-265 340q-30 41 -30 72z" />
<glyph unicode="&#xad;" horiz-adv-x="835" d="M135 627q0 51 36 87t85 36h385q49 0 85 -36t36 -87q0 -49 -36 -85t-85 -36h-385q-49 0 -85 36t-36 85z" />
<glyph unicode="&#xae;" horiz-adv-x="851" d="M70 1094v2q0 147 104.5 252.5t251.5 105.5q150 0 253 -104.5t103 -251.5v-2q0 -147 -104.5 -253t-251.5 -106q-150 0 -253 105t-103 252zM111 1094q0 -131 91 -224.5t224 -93.5t224 94.5t91 225.5v2q0 131 -91 224t-224 93t-224 -94t-91 -225v-2zM299 911v355q0 33 33 32 h108q53 0 90 -37.5t37 -91.5q0 -57 -47 -98q16 -12 23 -22q18 -29 18 -64q0 -10 1 -22.5t1 -14.5q16 -4 23 -20q10 -31 -23 -41l-4 -2h-8q-12 0 -25 6q-10 6 -18 20q-12 27 -12 74q-4 18 -9 25q-6 10 -18 18q-10 6 -33 14h-69v-131q0 -14 -10.5 -23t-24.5 -9q-33 -1 -33 32z M367 1108h73q25 0 43.5 18.5t18.5 42.5q0 27 -18.5 44.5t-43.5 17.5h-73v-123z" />
<glyph unicode="&#xb0;" horiz-adv-x="921" d="M152 1112v4q0 133 103 231.5t238.5 98.5t238 -98.5t102.5 -231.5v-4q0 -133 -102.5 -232.5t-238 -99.5t-238.5 99.5t-103 232.5zM299 1112q0 -80 56.5 -138.5t138 -58.5t137 58.5t55.5 138.5v4q0 80 -55.5 137.5t-136.5 57.5q-84 0 -139.5 -57.5t-55.5 -137.5v-4z" />
<glyph unicode="&#xb2;" horiz-adv-x="1208" d="M102 118q2 46 37 79l606 548q86 78 86 197q0 102 -67 178q-78 86 -197 86q-100 0 -178 -67l-63 -58q-35 -33 -81 -29.5t-79 38.5q-31 35 -29 81t37 78l64 58q135 127 329 127q219 0 365 -162q127 -135 127 -330q0 -219 -162 -364l-387 -351h436q47 0 80 -33.5t33 -80.5 t-33 -80t-80 -33h-725h-2h-2q-53 0 -84 37q-33 35 -31 81z" />
<glyph unicode="&#xb3;" horiz-adv-x="1249" d="M156 233.5q0 49.5 34.5 82t81.5 32.5t82 -33q80 -80 195 -79.5t196 79.5q82 82 82 197t-82 195q-76 78 -194 81q-51 -4 -84 37q-2 0 -2 2q-35 33 -36 81t32 83l209 213h-332q-47 0 -81 34t-34 83q0 47 34 81t81 34h604q49 0 83 -34t34 -81q0 -27 -15 -55q-12 -20 -20 -29 l-258 -266q86 -39 143 -101q150 -147 150 -358t-149.5 -360.5t-360.5 -149.5q-209 0 -359 150q-34 32 -34 81.5z" />
<glyph unicode="&#xb4;" horiz-adv-x="1024" d="M412 1251q0 20 16 45l117 181q37 59 98 59q51 0 99.5 -25.5t48.5 -54.5q0 -31 -35 -61l-138 -131q-59 -55 -145 -56q-61 0 -61 43z" />
<glyph unicode="&#xb8;" horiz-adv-x="1024" d="M348 -238q0 25 17 48l145 210h186l-125 -288q-25 -59 -79 -60q-41 0 -92.5 29.5t-51.5 60.5z" />
<glyph unicode="&#xb9;" horiz-adv-x="686" d="M81 1199q11 46 52 69l252 149l4 2l4 2q2 0 5 3t5.5 3t6.5 1.5t6 1.5q2 2 8 2q4 2 14 2h6h2h15q2 -2 8 -2q4 0 12 -5q6 0 8 -2q8 -6 13 -6q4 -4 8 -6q2 0 4 -2l4 -4l8 -8q4 -4 6 -8l9 -9l2 -4q0 -2 2 -2v-4q4 -8 4 -10t1 -5t3 -5v-6l2 -5q0 -10 4 -14v-6v-1208 q0 -47 -33.5 -80t-81 -33t-80 33t-32.5 80v1007l-82 -47q-25 -16 -57 -16q-63 0 -97 57q-26 39 -15 85z" />
<glyph unicode="&#xba;" horiz-adv-x="1280" d="M143 510q0 201 142 358q150 156 352 156q207 0 342 -156q143 -154 143 -358q0 -221 -143 -360q-135 -156 -342 -156q-203 0 -352 156q-142 145 -142 360zM367 510q0 -127 73 -217q80 -76 197 -76q109 0 188 76q80 90 80 217t-80 213q-88 78 -188 78q-109 0 -197 -78 q-73 -86 -73 -213z" />
<glyph unicode="&#xbb;" horiz-adv-x="1054" d="M137 541q0 37 29 71l258 334q39 49 94 49q41 0 69.5 -30.5t28.5 -71.5q0 -35 -26 -70l-217 -280l221 -287q25 -31 24 -68q0 -43 -29.5 -72.5t-72.5 -29.5q-53 0 -86 43l-264 340q-29 39 -29 72zM651 541q0 35 31 71l258 334q35 49 92 49q43 0 72 -29.5t29 -72.5 q0 -37 -29 -70l-215 -280l219 -287q27 -33 27 -68q-2 -43 -31 -72.5t-72 -29.5q-53 0 -86 43l-264 340q-31 41 -31 72z" />
<glyph unicode="&#xbf;" horiz-adv-x="1093" d="M125 289q10 39 45 61q37 20 77 10t62 -47q66 -113 197 -112q96 0 164.5 66.5t68.5 162.5q0 94 -68.5 161.5t-164.5 67.5q-39 0 -69.5 31t-30.5 70q0 2 2 4q0 2 -1 2t-1 2v213q0 43 29.5 71.5t70.5 28.5q43 0 71.5 -28.5t28.5 -71.5v-133q143 -35 237.5 -150.5 t94.5 -267.5q0 -178 -127 -304t-305 -126q-117 0 -216.5 58.5t-154.5 154.5q-20 37 -10 76zM406 1296v37q0 43 29.5 72t70.5 29q43 0 71.5 -29t28.5 -72v-37q0 -41 -28.5 -70.5t-71.5 -29.5q-41 0 -70.5 29.5t-29.5 70.5z" />
<glyph unicode="&#xc0;" horiz-adv-x="1329" d="M133 154l453 1206q14 33 43.5 53.5t64.5 18.5q78 4 109 -72l452 -1206q16 -45 -3 -88t-64 -60q-16 -6 -39 -6q-78 0 -105 72l-100 266h-498l-100 -266q-29 -72 -106 -72q-20 0 -39 6q-45 16 -64.5 59.5t-3.5 88.5zM502 1866q0 29 48 54.5t99 25.5q61 0 99 -60l116 -180 q18 -27 19 -45q0 -43 -64 -43q-86 0 -143 55l-139 131q-35 31 -35 62zM528 563h332l-166 441z" />
<glyph unicode="&#xc1;" horiz-adv-x="1323" d="M133 154l453 1206q14 33 43.5 53.5t64.5 18.5q78 4 109 -72l452 -1206q16 -45 -3 -88t-64 -60q-16 -6 -39 -6q-78 0 -105 72l-100 266h-498l-100 -266q-29 -72 -106 -72q-20 0 -39 6q-45 16 -64.5 59.5t-3.5 88.5zM510 1661q0 20 16 45l117 180q37 59 98 60 q51 0 99.5 -26t48.5 -54q0 -31 -35 -62l-137 -131q-59 -55 -146 -55q-61 0 -61 43zM528 563h332l-166 441z" />
<glyph unicode="&#xc2;" horiz-adv-x="1359" d="M135 154l453 1206q14 33 44 53.5t64 18.5q78 4 109 -72l452 -1206q16 -45 -3 -88t-64 -60q-14 -6 -39 -6q-78 0 -104 72l-101 266h-497l-101 -266q-29 -72 -106 -72q-20 0 -39 6q-45 16 -64.5 59.5t-3.5 88.5zM381 1659q0 16 25 49l135 170q49 59 118 59h74q72 0 119 -59 l135 -170q25 -33 25 -49q0 -41 -60 -41q-84 0 -151 55l-107 92l-106 -92q-66 -55 -152 -55q-55 0 -55 41zM530 563h332l-166 441z" />
<glyph unicode="&#xc3;" horiz-adv-x="1359" d="M135 154l453 1206q14 33 44 53.5t64 18.5q78 4 109 -72l452 -1206q16 -45 -3 -88t-64 -60q-14 -6 -39 -6q-78 0 -104 72l-101 266h-497l-101 -266q-29 -72 -106 -72q-20 0 -39 6q-45 16 -64.5 59.5t-3.5 88.5zM324 1671q0 18 8 47q35 94 83 140.5t126 46.5 q61 0 161.5 -41t133.5 -41q59 0 94 65q27 41 67 41q31 0 53.5 -20.5t22.5 -46.5q0 -18 -8 -47q-35 -94 -83 -140.5t-126 -46.5q-61 0 -161.5 41t-133.5 41q-59 0 -94 -65q-27 -41 -68 -41q-31 0 -53 20t-22 47zM530 563h332l-166 441z" />
<glyph unicode="&#xc4;" horiz-adv-x="1357" d="M135 154l453 1206q14 33 44 53.5t64 18.5q78 4 109 -72l452 -1206q16 -45 -3 -88t-64 -60q-14 -6 -39 -6q-78 0 -104 72l-101 266h-497l-101 -266q-29 -72 -106 -72q-20 0 -39 6q-45 16 -64.5 59.5t-3.5 88.5zM362 1712q0 55 38 94t93.5 39t94.5 -39t39 -94t-39 -93 t-94.5 -38t-93.5 38t-38 93zM530 563h332l-166 441zM772 1712q0 55 38 94t93 39t94 -39t39 -94t-39 -93t-94 -38t-93 38t-38 93z" />
<glyph unicode="&#xc5;" horiz-adv-x="1323" d="M109 154l423 1132q-127 78 -126 213v4q0 102 78.5 177t183 75t183.5 -74.5t79 -177.5v-4q0 -135 -125 -211l426 -1134q16 -45 -3.5 -88t-64.5 -60q-16 -6 -39 -6q-78 0 -104 72l-100 266h-498l-100 -266q-29 -72 -107 -72q-20 0 -39 6q-45 16 -64 59.5t-3 88.5zM504 563 h332l-166 441zM569 1499q0 -41 29 -68.5t70 -27.5t69.5 27.5t28.5 68.5v4q0 41 -28.5 68.5t-69.5 27.5t-70 -27.5t-29 -68.5v-4z" />
<glyph unicode="&#xc6;" horiz-adv-x="2140" d="M72 92q0 41 20 72l690 1182q49 88 148 88h985q47 0 80 -33t33 -80t-33 -80t-80 -33h-664v-372h572q47 0 79.5 -34t32.5 -81q0 -45 -32.5 -78t-79.5 -33h-572v-385h674q45 0 79 -32.5t34 -79.5t-33 -80t-80 -33h-799q-53 0 -90 37t-37 90v219h-540l-166 -289 q-41 -70 -111 -69q-47 0 -78.5 29.5t-31.5 74.5zM588 569h411v645h-41z" />
<glyph unicode="&#xc7;" horiz-adv-x="1579" d="M150 737q2 303 223 519.5t528 218.5q268 0 473 -160q37 -31 43 -78t-22 -86q-31 -39 -80 -45t-84 22q-137 113 -330 113q-211 0 -369 -147q-150 -154 -149 -357q0 -211 149 -356q158 -147 369 -148q188 0 330 113q35 27 84 20.5t80 -42.5q29 -39 22.5 -87.5t-43.5 -76.5 q-205 -160 -473 -160q-307 0 -528 216t-223 521zM614 -238q0 25 17 48l145 210h187l-125 -288q-25 -59 -80 -60q-41 0 -92.5 29.5t-51.5 60.5z" />
<glyph unicode="&#xc8;" horiz-adv-x="1214" d="M213 113v1208q0 47 33 80t80 33h2h4h663q45 0 79 -33t34 -80t-34 -81t-79 -34h-555v-375h478q45 0 78.5 -33.5t33.5 -78.5q0 -47 -32.5 -81t-79.5 -34h-478v-377h555q45 0 79 -33.5t34 -80.5q0 -45 -34 -79t-79 -34h-663l-4 2l-2 -2q-47 0 -80 33t-33 80zM475 1866 q0 29 48 54.5t100 25.5q61 0 98 -60l117 -180q18 -27 18 -45q0 -43 -63 -43q-86 0 -144 55l-139 131q-35 31 -35 62z" />
<glyph unicode="&#xc9;" horiz-adv-x="1214" d="M213 113v1208q0 47 33 80t80 33h2h4h663q45 0 79 -33t34 -80t-34 -81t-79 -34h-555v-375h478q45 0 78.5 -33.5t33.5 -78.5q0 -47 -32.5 -81t-79.5 -34h-478v-377h555q45 0 79 -33.5t34 -80.5q0 -45 -34 -79t-79 -34h-663l-4 2l-2 -2q-47 0 -80 33t-33 80zM475 1661 q0 20 17 45l116 180q37 59 99 60q51 0 99 -26t48 -54q0 -31 -35 -62l-137 -131q-59 -55 -145 -55q-62 0 -62 43z" />
<glyph unicode="&#xca;" horiz-adv-x="1214" d="M213 113v1208q0 47 33 80t80 33h2h4h663q45 0 79 -33t34 -80t-34 -81t-79 -34h-555v-375h478q45 0 78.5 -33.5t33.5 -78.5q0 -47 -32.5 -81t-79.5 -34h-478v-377h555q45 0 79 -33.5t34 -80.5q0 -45 -34 -79t-79 -34h-663l-4 2l-2 -2q-47 0 -80 33t-33 80zM346 1659 q0 16 25 49l135 170q49 59 119 59h73q72 0 119 -59l135 -170q25 -33 25 -49q0 -41 -59 -41q-84 0 -152 55l-107 92l-106 -92q-66 -55 -152 -55q-55 0 -55 41z" />
<glyph unicode="&#xcb;" horiz-adv-x="1372" d="M213 113v1208q0 47 33 80t80 33h2h4h663q45 0 79 -33t34 -80t-34 -81t-79 -34h-555v-375h478q45 0 78.5 -33.5t33.5 -78.5q0 -47 -32.5 -81t-79.5 -34h-478v-377h555q45 0 79 -33.5t34 -80.5q0 -45 -34 -79t-79 -34h-663l-4 2l-2 -2q-47 0 -80 33t-33 80zM326 1712 q0 55 37.5 94t93 39t94.5 -39t39 -94t-39 -93t-94.5 -38t-93 38t-37.5 93zM735 1712q0 55 38 94t93.5 39t94 -39t38.5 -94t-38.5 -93t-94 -38t-93.5 38t-38 93z" />
<glyph unicode="&#xcc;" horiz-adv-x="712" d="M252 1866q0 29 48 54.5t99 25.5q61 0 99 -60l116 -180q18 -27 19 -45q0 -43 -64 -43q-86 0 -143 55l-139 131q-35 31 -35 62zM330 113q0 -47 32.5 -80t79.5 -33t81 33t34 80v1208q0 47 -34 80t-81 33t-79.5 -33t-32.5 -80v-1208z" />
<glyph unicode="&#xcd;" horiz-adv-x="561" d="M96 1661q0 20 17 45l116 180q37 59 99 60q51 0 99 -26t48 -54q0 -31 -35 -62l-137 -131q-59 -55 -145 -55q-62 0 -62 43zM170 113q0 -47 33 -80t80 -33t80.5 33t33.5 80v1208q0 47 -33.5 80t-80.5 33t-80 -33t-33 -80v-1208z" />
<glyph unicode="&#xce;" horiz-adv-x="561" d="M4 1659q0 16 25 49l135 170q49 59 119 59h73q72 0 119 -59l135 -170q25 -33 25 -49q0 -41 -60 -41q-84 0 -151 55l-107 92l-106 -92q-66 -55 -152 -55q-55 0 -55 41zM209 113q0 -47 32.5 -80t80 -33t81 33t33.5 80v1208q0 47 -33.5 80t-81 33t-80 -33t-32.5 -80v-1208z " />
<glyph unicode="&#xcf;" horiz-adv-x="561" d="M-16 1712q0 55 37.5 94t93 39t94.5 -39t39 -94t-39 -93t-94.5 -38t-93 38t-37.5 93zM209 113q0 -47 32.5 -80t80 -33t81 33t33.5 80v1208q0 47 -33.5 80t-81 33t-80 -33t-32.5 -80v-1208zM393 1712q0 55 38 94t93.5 39t94 -39t38.5 -94t-38.5 -93t-94 -38t-93.5 38 t-38 93z" />
<glyph unicode="&#xd0;" horiz-adv-x="1662" d="M113 721q0 51 35.5 87t84.5 36h76v477q0 47 33 80t80 33h242q297 0 505.5 -210t208.5 -505q0 -299 -208.5 -509t-505.5 -210h-242q-47 0 -80 33t-33 80v487h-76q-49 0 -84.5 36t-35.5 85zM537 227h127q203 2 345 144.5t142 347.5q0 201 -142.5 344t-344.5 143h-127v-362 h81q49 0 85 -36t36 -87q0 -49 -35.5 -85t-85.5 -36h-81v-373z" />
<glyph unicode="&#xd1;" horiz-adv-x="1617" d="M215 113v1190v2q-4 59 45 94q39 27 84 19.5t72 -44.5l661 -915v844q0 45 33 77.5t78 32.5t78.5 -32.5t33.5 -77.5v-1190q0 -47 -33.5 -80t-78.5 -33q-49 0 -84 41q-8 8 -10 12l-656 910v-850q0 -45 -32.5 -79t-77.5 -34q-47 0 -80 33t-33 80zM383 1671q0 18 8 47 q35 94 83 140.5t126 46.5q61 0 161.5 -41t133.5 -41q59 0 94 65q27 41 68 41q31 0 53.5 -20.5t22.5 -46.5q0 -18 -9 -47q-35 -94 -83 -140.5t-126 -46.5q-61 0 -161.5 41t-132.5 41q-59 0 -95 -65q-27 -41 -67 -41q-31 0 -53.5 20t-22.5 47z" />
<glyph unicode="&#xd2;" horiz-adv-x="1740" d="M150 737q0 303 202 518q203 219 502 220q139 0 268 -58.5t221 -161.5q207 -221 207 -518q0 -301 -207 -518q-92 -102 -221 -160.5t-268 -58.5q-145 0 -275 58.5t-227 160.5q-202 213 -202 518zM383 737q0 -213 139 -356q137 -147 332 -148q186 0 324 148q139 145 139 356 q0 209 -139 359q-135 145 -324 145q-197 0 -332 -145q-139 -146 -139 -359zM666 1866q0 29 48 54.5t99 25.5q61 0 98 -60l117 -180q18 -27 19 -45q0 -43 -64 -43q-86 0 -143 55l-140 131q-34 31 -34 62z" />
<glyph unicode="&#xd3;" horiz-adv-x="1740" d="M150 737q0 303 202 518q203 219 502 220q139 0 268 -58.5t221 -161.5q207 -221 207 -518q0 -301 -207 -518q-92 -102 -221 -160.5t-268 -58.5q-145 0 -275 58.5t-227 160.5q-202 213 -202 518zM383 737q0 -213 139 -356q137 -147 332 -148q186 0 324 148q139 145 139 356 q0 209 -139 359q-135 145 -324 145q-197 0 -332 -145q-139 -146 -139 -359zM668 1661q0 20 16 45l117 180q37 59 98 60q51 0 99.5 -26t48.5 -54q0 -31 -35 -62l-138 -131q-59 -55 -145 -55q-61 0 -61 43z" />
<glyph unicode="&#xd4;" horiz-adv-x="1740" d="M150 737q0 303 202 518q203 219 502 220q139 0 268 -58.5t221 -161.5q207 -221 207 -518q0 -301 -207 -518q-92 -102 -221 -160.5t-268 -58.5q-145 0 -275 58.5t-227 160.5q-202 213 -202 518zM383 737q0 -213 139 -356q137 -147 332 -148q186 0 324 148q139 145 139 356 q0 209 -139 359q-135 145 -324 145q-197 0 -332 -145q-139 -146 -139 -359zM535 1659q0 16 24 49l135 170q49 59 119 59h74q72 0 119 -59l135 -170q25 -33 24 -49q0 -41 -59 -41q-84 0 -152 55l-106 92l-107 -92q-66 -55 -151 -55q-55 0 -55 41z" />
<glyph unicode="&#xd5;" horiz-adv-x="1740" d="M150 737q0 303 202 518q203 219 502 220q139 0 268 -58.5t221 -161.5q207 -221 207 -518q0 -301 -207 -518q-92 -102 -221 -160.5t-268 -58.5q-145 0 -275 58.5t-227 160.5q-202 213 -202 518zM383 737q0 -213 139 -356q137 -147 332 -148q186 0 324 148q139 145 139 356 q0 209 -139 359q-135 145 -324 145q-197 0 -332 -145q-139 -146 -139 -359zM477 1671q0 18 8 47q35 94 83 140.5t126 46.5q61 0 161.5 -41t133.5 -41q59 0 94 65q27 41 68 41q31 0 53.5 -20.5t22.5 -46.5q0 -18 -8 -47q-35 -94 -83.5 -140.5t-125.5 -46.5q-61 0 -161.5 41 t-133.5 41q-59 0 -94 -65q-27 -41 -68 -41q-31 0 -53.5 20t-22.5 47z" />
<glyph unicode="&#xd6;" horiz-adv-x="1740" d="M150 737q0 303 202 518q203 219 502 220q139 0 268 -58.5t221 -161.5q207 -221 207 -518q0 -301 -207 -518q-92 -102 -221 -160.5t-268 -58.5q-145 0 -275 58.5t-227 160.5q-202 213 -202 518zM383 737q0 -213 139 -356q137 -147 332 -148q186 0 324 148q139 145 139 356 q0 209 -139 359q-135 145 -324 145q-197 0 -332 -145q-139 -146 -139 -359zM514 1712q0 55 38 94t93 39t94 -39t39 -94t-39 -93t-94 -38t-93 38t-38 93zM924 1712q0 55 37.5 94t93 39t94.5 -39t39 -94t-39 -93t-94.5 -38t-93 38t-37.5 93z" />
<glyph unicode="&#xd7;" horiz-adv-x="1269" d="M205 375q0 49 37 82l266 262l-270 262q-33 37 -33 82q0 47 32.5 79t77.5 32q47 0 82 -35l262 -269l265 269q31 35 78 35t77.5 -32t30.5 -77q0 -47 -37 -80l-266 -262l268 -262q35 -35 35 -82t-33 -79t-78 -32t-81 33l-263 270l-264 -268q-31 -35 -80 -35q-45 0 -75.5 31 t-30.5 76z" />
<glyph unicode="&#xd8;" horiz-adv-x="1740" d="M150 713v4q0 307 212.5 524t538.5 217q256 0 447 -139l98 100q35 35 78 35q37 0 62.5 -23.5t25.5 -56.5q0 -43 -35 -78l-96 -100q168 -203 168 -475v-4q0 -307 -213 -524.5t-539 -217.5q-254 0 -446 138l-99 -99q-31 -35 -78 -34q-39 0 -63.5 23.5t-24.5 57.5q0 41 35 76 l96 101q-167 203 -167 475zM410 717q0 -162 86 -293l684 715q-125 92 -283 92q-211 0 -349 -148.5t-138 -361.5v-4zM616 293q125 -90 285 -90q211 0 349.5 148.5t138.5 361.5v4q0 158 -86 293z" />
<glyph unicode="&#xd9;" horiz-adv-x="1556" d="M190 592v729q0 47 33 80t80 33t81 -33t34 -80v-729q0 -150 106.5 -257.5t258 -107.5t258 106.5t106.5 258.5v729q0 47 33.5 80t81 33t80 -33t32.5 -80v-729q0 -244 -173 -418t-418.5 -174t-419 173t-173.5 419zM592 1866q0 29 48 54.5t99 25.5q61 0 99 -60l116 -180 q18 -27 19 -45q0 -43 -64 -43q-86 0 -143 55l-139 131q-35 31 -35 62z" />
<glyph unicode="&#xda;" horiz-adv-x="1556" d="M190 592v729q0 47 33 80t80 33t81 -33t34 -80v-729q0 -150 106.5 -257.5t258 -107.5t258 106.5t106.5 258.5v729q0 47 33.5 80t81 33t80 -33t32.5 -80v-729q0 -244 -173 -418t-418.5 -174t-419 173t-173.5 419zM594 1661q0 20 16 45l117 180q37 59 98 60q51 0 99.5 -26 t48.5 -54q0 -31 -35 -62l-137 -131q-59 -55 -146 -55q-61 0 -61 43z" />
<glyph unicode="&#xdb;" horiz-adv-x="1556" d="M190 592v729q0 47 33 80t80 33t81 -33t34 -80v-729q0 -150 106.5 -257.5t258 -107.5t258 106.5t106.5 258.5v729q0 47 33.5 80t81 33t80 -33t32.5 -80v-729q0 -244 -173 -418t-418.5 -174t-419 173t-173.5 419zM465 1659q0 16 24 49l136 170q49 59 118 59h74 q72 0 119 -59l135 -170q25 -33 25 -49q0 -41 -60 -41q-84 0 -151 55l-107 92l-106 -92q-66 -55 -152 -55q-55 0 -55 41z" />
<glyph unicode="&#xdc;" horiz-adv-x="1556" d="M190 592v729q0 47 33 80t80 33t81 -33t34 -80v-729q0 -150 106.5 -257.5t258 -107.5t258 106.5t106.5 258.5v729q0 47 33.5 80t81 33t80 -33t32.5 -80v-729q0 -244 -173 -418t-418.5 -174t-419 173t-173.5 419zM442 1712q0 55 38 94t93.5 39t94.5 -39t39 -94t-39 -93 t-94.5 -38t-93.5 38t-38 93zM852 1712q0 55 38 94t93 39t94 -39t39 -94t-39 -93t-94 -38t-93 38t-38 93z" />
<glyph unicode="&#xdd;" horiz-adv-x="1466" d="M127 1323q6 45 45 73.5t84 21.5t72 -46l350 -479l350 479q29 39 75 46t83 -21q37 -27 44 -73t-20 -83l-419 -575v-553q0 -47 -33 -80t-80 -33q-45 0 -79 33t-34 80v553l-415 575q-29 37 -23 82zM559 1661q0 20 16 45l117 180q37 59 99 60q51 0 99 -26t48 -54 q0 -31 -35 -62l-137 -131q-59 -55 -145 -55q-62 0 -62 43z" />
<glyph unicode="&#xdf;" horiz-adv-x="1269" d="M190 111v917q0 223 131.5 352t356.5 129q203 0 322.5 -109.5t119.5 -275.5v-4q0 -225 -227 -350q311 -104 311 -364v-5q0 -188 -136 -295.5t-325 -111.5q-51 0 -81.5 28.5t-30.5 73.5q0 78 88 99q238 37 237 213v4q0 158 -235 217q-90 27 -90 108q0 68 53 103 q188 104 188 258v4q0 88 -56 142t-150 54q-102 0 -166 -71.5t-64 -190.5v-925q0 -51 -35.5 -86t-89.5 -35q-51 0 -86 35t-35 86z" />
<glyph unicode="&#xe0;" horiz-adv-x="1175" d="M129 510q0 215 139 360q143 154 348 154q145 0 273 -90q10 39 38.5 64.5t67.5 25.5q45 0 77 -33t32 -78v-403v-401q0 -45 -32 -77t-77 -32q-39 0 -67.5 24.5t-38.5 63.5q-125 -88 -273 -88q-205 0 -348 150q-139 149 -139 360zM348 510q0 -127 78 -211q74 -80 190 -80 q115 0 191 80q80 86 80 211q0 127 -80 211q-74 84 -191 84q-119 0 -190 -84q-78 -82 -78 -211zM475 1415q0 29 48 54.5t100 25.5q61 0 98 -59l117 -181q18 -27 18 -45q0 -43 -63 -43q-86 0 -144 56l-139 131q-35 30 -35 61z" />
<glyph unicode="&#xe1;" horiz-adv-x="1175" d="M129 510q0 215 139 360q143 154 348 154q145 0 273 -90q10 39 38.5 64.5t67.5 25.5q45 0 77 -33t32 -78v-403v-401q0 -45 -32 -77t-77 -32q-39 0 -67.5 24.5t-38.5 63.5q-125 -88 -273 -88q-205 0 -348 150q-139 149 -139 360zM348 510q0 -127 78 -211q74 -80 190 -80 q115 0 191 80q80 86 80 211q0 127 -80 211q-74 84 -191 84q-119 0 -190 -84q-78 -82 -78 -211zM662 1210q0 20 16 45l117 181q37 59 98 59q51 0 99 -25.5t48 -54.5q0 -31 -34 -61l-138 -131q-59 -55 -145 -56q-61 0 -61 43z" />
<glyph unicode="&#xe2;" horiz-adv-x="1175" d="M129 510q0 215 139 360q143 154 348 154q145 0 273 -90q10 39 38.5 64.5t67.5 25.5q45 0 77 -33t32 -78v-403v-401q0 -45 -32 -77t-77 -32q-39 0 -67.5 24.5t-38.5 63.5q-125 -88 -273 -88q-205 0 -348 150q-139 149 -139 360zM301 1208q0 16 25 49l135 170q49 59 119 60 h73q72 0 119 -60l135 -170q25 -33 25 -49q0 -41 -60 -41q-84 0 -151 56l-107 92l-106 -92q-66 -55 -152 -56q-55 0 -55 41zM348 510q0 -127 78 -211q74 -80 190 -80q115 0 191 80q80 86 80 211q0 127 -80 211q-74 84 -191 84q-119 0 -190 -84q-78 -82 -78 -211z" />
<glyph unicode="&#xe3;" horiz-adv-x="1175" d="M129 510q0 215 139 360q143 154 348 154q145 0 273 -90q10 39 38.5 64.5t67.5 25.5q45 0 77 -33t32 -78v-403v-401q0 -45 -32 -77t-77 -32q-39 0 -67.5 24.5t-38.5 63.5q-125 -88 -273 -88q-205 0 -348 150q-139 149 -139 360zM242 1235q0 18 8 47q35 94 83 140t126 46 q61 0 161.5 -41t133.5 -41q59 0 94 66q27 41 67 41q31 0 53.5 -20.5t22.5 -47.5q0 -18 -8 -47q-35 -94 -83 -140t-126 -46q-61 0 -161.5 41t-133.5 41q-59 0 -94 -66q-27 -41 -68 -41q-31 0 -53 20.5t-22 47.5zM348 510q0 -127 78 -211q74 -80 190 -80q115 0 191 80 q80 86 80 211q0 127 -80 211q-74 84 -191 84q-119 0 -190 -84q-78 -82 -78 -211z" />
<glyph unicode="&#xe4;" horiz-adv-x="1175" d="M129 510q0 215 139 360q143 154 348 154q145 0 273 -90q10 39 38.5 64.5t67.5 25.5q45 0 77 -33t32 -78v-403v-401q0 -45 -32 -77t-77 -32q-39 0 -67.5 24.5t-38.5 63.5q-125 -88 -273 -88q-205 0 -348 150q-139 149 -139 360zM281 1298.5q0 55.5 37.5 94.5t93 39 t94.5 -39t39 -94.5t-39 -93.5t-94.5 -38t-93 38t-37.5 93.5zM348 510q0 -127 78 -211q74 -80 190 -80q115 0 191 80q80 86 80 211q0 127 -80 211q-74 84 -191 84q-119 0 -190 -84q-78 -82 -78 -211zM690 1298.5q0 55.5 38 94.5t93.5 39t94 -39t38.5 -94.5t-38.5 -93.5 t-94 -38t-93.5 38t-38 93.5z" />
<glyph unicode="&#xe5;" horiz-adv-x="1175" d="M104 510q0 215 140 360q143 154 348 154q145 0 272 -90q10 39 39 64.5t68 25.5q45 0 76.5 -33t31.5 -78v-403v-401q0 -45 -31.5 -77t-76.5 -32q-39 0 -68 24.5t-39 63.5q-125 -88 -272 -88q-205 0 -348 150q-140 149 -140 360zM324 510q0 -127 77 -211q74 -80 191 -80 q115 0 190 80q80 86 80 211q0 127 -80 211q-74 84 -190 84q-119 0 -191 -84q-77 -82 -77 -211zM332 1419v4q0 102 78.5 177t183 75t183.5 -74.5t79 -177.5v-4q0 -100 -79 -176t-183.5 -76t-183 76t-78.5 176zM496 1419q0 -41 28.5 -68.5t69.5 -27.5t69.5 27.5t28.5 68.5v4 q0 41 -28.5 69t-69.5 28t-69.5 -28t-28.5 -69v-4z" />
<glyph unicode="&#xe6;" horiz-adv-x="1953" d="M104 520q0 217 142 369q145 156 356 155q147 0 279 -90q10 39 38.5 64.5t69.5 25.5q45 0 78 -32.5t33 -79.5v-25q147 137 344 137q205 0 348 -137t156 -346v-12q0 -14 -2 -19q-4 -37 -35 -60.5t-74 -23.5h-666q18 -88 72 -137q33 -37 89.5 -63.5t111.5 -30.5 q137 -10 217 53q33 33 84 33t74 -27q25 -29 27.5 -63.5t-27.5 -73.5q-150 -137 -375 -137q-197 0 -344 137v-26q0 -45 -33 -78t-78 -33q-41 0 -69.5 25.5t-38.5 64.5q-125 -90 -279 -90q-209 0 -356 154q-142 153 -142 366zM328 520q0 -125 80 -215q78 -82 194 -82 q113 0 195 82q82 92 82 215q0 129 -82 215q-76 86 -195 86q-121 0 -194 -86q-80 -84 -80 -215zM1161 625h592q-18 74 -101 142.5t-208 78.5q-121 -6 -195 -74.5t-88 -146.5z" />
<glyph unicode="&#xe7;" horiz-adv-x="1169" d="M119 510q0 213 153.5 362.5t366.5 151.5q178 0 326 -113q35 -27 41 -72.5t-19 -78.5q-31 -37 -75 -43t-78 22q-90 66 -195 66q-123 0 -213 -88t-90 -207t89 -206t214 -87q104 0 195 66q33 27 77.5 20.5t75.5 -43.5q25 -33 18.5 -77t-40.5 -74q-152 -109 -326 -109 q-213 0 -366.5 150.5t-153.5 359.5zM410 -238q0 25 16 48l145 210h187l-125 -288q-25 -59 -80 -60q-41 0 -92 29.5t-51 60.5z" />
<glyph unicode="&#xe8;" horiz-adv-x="1247" d="M119 512q2 211 146.5 361.5t352.5 150.5q201 0 341.5 -134t152.5 -341v-10q0 -14 -2 -19q-4 -37 -33.5 -59.5t-72.5 -22.5h-652q18 -88 70 -135q72 -82 196 -92q131 -10 213 51q31 33 82.5 33t71.5 -27q25 -27 28 -61.5t-28 -71.5q-147 -135 -367 -135q-209 2 -353 151.5 t-146 360.5zM342 612h580q-18 72 -99.5 139.5t-204.5 77.5q-119 -6 -190.5 -73.5t-85.5 -143.5zM422 1415q0 29 48 54.5t99 25.5q61 0 99 -59l116 -181q18 -27 19 -45q0 -43 -64 -43q-86 0 -143 56l-139 131q-35 30 -35 61z" />
<glyph unicode="&#xe9;" horiz-adv-x="1247" d="M119 512q2 211 146.5 361.5t352.5 150.5q201 0 341.5 -134t152.5 -341v-10q0 -14 -2 -19q-4 -37 -33.5 -59.5t-72.5 -22.5h-652q18 -88 70 -135q72 -82 196 -92q131 -10 213 51q31 33 82.5 33t71.5 -27q25 -27 28 -61.5t-28 -71.5q-147 -135 -367 -135q-209 2 -353 151.5 t-146 360.5zM342 612h580q-18 72 -99.5 139.5t-204.5 77.5q-119 -6 -190.5 -73.5t-85.5 -143.5zM424 1210q0 20 16 45l117 181q37 59 98 59q51 0 99.5 -25.5t48.5 -54.5q0 -31 -35 -61l-137 -131q-59 -55 -146 -56q-61 0 -61 43z" />
<glyph unicode="&#xea;" horiz-adv-x="1247" d="M119 512q2 211 146.5 361.5t352.5 150.5q201 0 341.5 -134t152.5 -341v-10q0 -14 -2 -19q-4 -37 -33.5 -59.5t-72.5 -22.5h-652q18 -88 70 -135q72 -82 196 -92q131 -10 213 51q31 33 82.5 33t71.5 -27q25 -27 28 -61.5t-28 -71.5q-147 -135 -367 -135q-209 2 -353 151.5 t-146 360.5zM301 1208q0 16 25 49l135 170q49 59 119 60h73q72 0 119 -60l135 -170q25 -33 25 -49q0 -41 -60 -41q-84 0 -151 56l-107 92l-106 -92q-66 -55 -152 -56q-55 0 -55 41zM342 612h580q-18 72 -99.5 139.5t-204.5 77.5q-119 -6 -190.5 -73.5t-85.5 -143.5z" />
<glyph unicode="&#xeb;" horiz-adv-x="1196" d="M125 512q2 211 146.5 361.5t353.5 150.5q201 0 341 -134t152 -341v-10q0 -14 -2 -19q-4 -37 -33.5 -59.5t-72.5 -22.5h-652q18 -88 70 -135q72 -82 197 -92q131 -10 213 51q31 33 82 33t71 -27q25 -27 28 -61.5t-28 -71.5q-147 -135 -366 -135q-209 2 -353.5 151.5 t-146.5 360.5zM285 1298.5q0 55.5 37.5 94.5t93 39t94.5 -39t39 -94.5t-39 -93.5t-94.5 -38t-93 38t-37.5 93.5zM348 612h580q-18 72 -99 139.5t-204 77.5q-119 -6 -191 -73.5t-86 -143.5zM694 1298.5q0 55.5 38 94.5t93.5 39t94 -39t38.5 -94.5t-38.5 -93.5t-94 -38 t-93.5 38t-38 93.5z" />
<glyph unicode="&#xec;" horiz-adv-x="575" d="M49 1415q0 29 48 54.5t100 25.5q61 0 98 -59l117 -181q18 -27 18 -45q0 -43 -63 -43q-86 0 -144 56l-139 131q-35 30 -35 61zM131 111v798q0 49 32 81t79 32t78.5 -32t31.5 -81v-798q0 -47 -31.5 -79t-78.5 -32q-45 0 -78 33t-33 78z" />
<glyph unicode="&#xed;" horiz-adv-x="575" d="M29 1210q0 20 16 45l117 181q37 59 98 59q51 0 99.5 -25.5t48.5 -54.5q0 -31 -35 -61l-137 -131q-59 -55 -146 -56q-61 0 -61 43zM102 111v798q0 49 32 81t79 32t79 -32t32 -81v-798q0 -47 -32 -79t-79 -32q-45 0 -78 33t-33 78z" />
<glyph unicode="&#xee;" horiz-adv-x="575" d="M18 1208q0 16 25 49l135 170q49 59 119 60h74q72 0 118 -60l136 -170q25 -33 24 -49q0 -41 -59 -41q-84 0 -152 56l-106 92l-107 -92q-66 -55 -151 -56q-56 0 -56 41zM223 111v798q0 49 32 81t79 32t78.5 -32t31.5 -81v-798q0 -47 -31.5 -79t-78.5 -32t-79 33t-32 78z " />
<glyph unicode="&#xef;" horiz-adv-x="575" d="M-12 1298.5q0 55.5 37.5 94.5t93 39t94.5 -39t39 -94.5t-39 -93.5t-94.5 -38t-93 38t-37.5 93.5zM215 111v798q0 49 32 81t79 32t78.5 -32t31.5 -81v-798q0 -47 -31.5 -79t-78.5 -32t-79 33t-32 78zM397 1298.5q0 55.5 38 94.5t93.5 39t94.5 -39t39 -94.5t-39 -93.5 t-94.5 -38t-93.5 38t-38 93.5z" />
<glyph unicode="&#xf0;" horiz-adv-x="1286" d="M119 510q0 215 135 350t340 135q145 0 285 -84l-213 293l-224 -98q-16 -6 -34 -6q-33 0 -55.5 22.5t-22.5 55.5q0 53 55 73l186 82q-20 29 -20 66q0 47 32.5 79.5t80.5 32.5q59 0 98 -55l22 -33l179 78q25 8 34 8q33 0 55.5 -23.5t22.5 -55.5q0 -53 -53 -74l-148 -64 l185 -262q94 -137 136 -251.5t42 -248.5q0 -233 -154.5 -394t-412.5 -161q-236 0 -393.5 156t-157.5 379zM362 504q0 -131 90.5 -224.5t227.5 -93.5q139 0 226 92.5t87 227.5q0 129 -90 218t-231 89q-139 0 -224.5 -87t-85.5 -222z" />
<glyph unicode="&#xf1;" d="M193 109v489v317q0 45 31.5 77t76.5 32q70 0 100 -63q100 63 217 63q178 0 303.5 -126t125.5 -300v-489q0 -45 -31 -77t-76 -32q-43 0 -76 31.5t-33 77.5v489q0 86 -62 146.5t-151 60.5q-86 0 -145 -60.5t-59 -146.5v-489q0 -12 -4 -21q-8 -37 -39 -62.5t-70 -25.5 q-45 0 -76.5 32t-31.5 77zM244 1235q0 18 8 47q35 94 83 140t126 46q61 0 161.5 -41t133.5 -41q59 0 94 66q27 41 68 41q31 0 53 -20.5t22 -47.5q0 -18 -8 -47q-35 -94 -83 -140t-126 -46q-61 0 -161.5 41t-133.5 41q-59 0 -94 -66q-27 -41 -68 -41q-31 0 -53 20.5t-22 47.5 z" />
<glyph unicode="&#xf2;" horiz-adv-x="1310" d="M119 510q0 201 141 358q150 156 352 156q207 0 342 -156q143 -154 144 -358q0 -221 -144 -360q-135 -156 -342 -156q-203 0 -352 156q-141 145 -141 360zM342 510q0 -127 74 -217q80 -76 196 -76q109 0 189 76q80 90 80 217t-80 213q-88 78 -189 78q-109 0 -196 -78 q-74 -86 -74 -213zM418 1415q0 29 48 54.5t99 25.5q61 0 99 -59l116 -181q18 -27 19 -45q0 -43 -64 -43q-86 0 -143 56l-139 131q-35 30 -35 61z" />
<glyph unicode="&#xf3;" horiz-adv-x="1310" d="M119 510q0 201 141 358q150 156 352 156q207 0 342 -156q143 -154 144 -358q0 -221 -144 -360q-135 -156 -342 -156q-203 0 -352 156q-141 145 -141 360zM342 510q0 -127 74 -217q80 -76 196 -76q109 0 189 76q80 90 80 217t-80 213q-88 78 -189 78q-109 0 -196 -78 q-74 -86 -74 -213zM414 1210q0 20 16 45l117 181q37 59 98 59q51 0 99.5 -25.5t48.5 -54.5q0 -31 -35 -61l-137 -131q-59 -55 -146 -56q-61 0 -61 43z" />
<glyph unicode="&#xf4;" horiz-adv-x="1310" d="M119 510q0 201 141 358q150 156 352 156q207 0 342 -156q143 -154 144 -358q0 -221 -144 -360q-135 -156 -342 -156q-203 0 -352 156q-141 145 -141 360zM293 1208q0 16 24 49l136 170q49 59 118 60h74q72 0 119 -60l135 -170q25 -33 25 -49q0 -41 -60 -41q-84 0 -151 56 l-107 92l-106 -92q-66 -55 -152 -56q-55 0 -55 41zM342 510q0 -127 74 -217q80 -76 196 -76q109 0 189 76q80 90 80 217t-80 213q-88 78 -189 78q-109 0 -196 -78q-74 -86 -74 -213z" />
<glyph unicode="&#xf5;" horiz-adv-x="1310" d="M119 510q0 201 141 358q150 156 352 156q207 0 342 -156q143 -154 144 -358q0 -221 -144 -360q-135 -156 -342 -156q-203 0 -352 156q-141 145 -141 360zM233 1235q0 18 9 47q35 94 83 140t126 46q61 0 161.5 -41t132.5 -41q59 0 95 66q27 41 67 41q31 0 53.5 -20.5 t22.5 -47.5q0 -18 -8 -47q-35 -94 -83 -140t-126 -46q-61 0 -161.5 41t-133.5 41q-59 0 -94 -66q-27 -41 -68 -41q-31 0 -53.5 20.5t-22.5 47.5zM342 510q0 -127 74 -217q80 -76 196 -76q109 0 189 76q80 90 80 217t-80 213q-88 78 -189 78q-109 0 -196 -78 q-74 -86 -74 -213z" />
<glyph unicode="&#xf6;" horiz-adv-x="1310" d="M119 510q0 201 141 358q150 156 352 156q207 0 342 -156q143 -154 144 -358q0 -221 -144 -360q-135 -156 -342 -156q-203 0 -352 156q-141 145 -141 360zM272 1298.5q0 55.5 38 94.5t93.5 39t94.5 -39t39 -94.5t-39 -93.5t-94.5 -38t-93.5 38t-38 93.5zM342 510 q0 -127 74 -217q80 -76 196 -76q109 0 189 76q80 90 80 217t-80 213q-88 78 -189 78q-109 0 -196 -78q-74 -86 -74 -213zM682 1298.5q0 55.5 38 94.5t93 39t94 -39t39 -94.5t-39 -93.5t-94 -38t-93 38t-38 93.5z" />
<glyph unicode="&#xf7;" horiz-adv-x="1269" d="M131 721q0 43 31 74.5t76 31.5h827q45 0 75.5 -31.5t30.5 -74.5t-30.5 -75t-75.5 -32h-827q-45 0 -76 32t-31 75zM510 289v10q0 57 41 97t100.5 40t100.5 -40t41 -97v-10q0 -57 -41 -96t-100.5 -39t-100.5 39t-41 96zM510 1143v10q0 55 42 95t99.5 40t99.5 -40t42 -95 v-10q0 -57 -41 -97t-100.5 -40t-100.5 40t-41 97z" />
<glyph unicode="&#xf8;" horiz-adv-x="1310" d="M132 93q5 34 38 67l100 88q-76 123 -75 278q0 211 143 367q147 158 358 158q190 0 328 -131l70 63q35 29 76.5 37t66.5 -8q25 -18 19.5 -51t-35.5 -64l-103 -92q76 -127 76 -279q0 -223 -145 -368q-137 -158 -353 -158q-188 0 -331 131l-70 -61q-55 -47 -113 -39 q-18 4 -28 10q-27 18 -22 52zM420 526q0 -66 22 -123l414 367q-72 55 -160 55q-113 0 -196 -84q-80 -90 -80 -215zM530 281q76 -55 166 -56q111 0 193 82q84 94 84 219q0 68 -25 127z" />
<glyph unicode="&#xf9;" d="M170 426v489q0 43 31.5 76t77 33t77 -33t31.5 -76v-489q0 -88 60.5 -148.5t148.5 -60.5t150.5 60.5t64.5 148.5v489q0 43 30.5 76t76.5 33q43 0 76.5 -33t33.5 -76v-489q0 -174 -128 -300t-304 -126q-174 0 -300 125t-126 301zM410 1415q0 29 48 54.5t99 25.5 q61 0 98 -59l117 -181q18 -27 19 -45q0 -43 -64 -43q-86 0 -143 56l-140 131q-34 30 -34 61z" />
<glyph unicode="&#xfa;" d="M170 426v489q0 43 31.5 76t77 33t77 -33t31.5 -76v-489q0 -88 60.5 -148.5t148.5 -60.5t150.5 60.5t64.5 148.5v489q0 43 30.5 76t76.5 33q43 0 76.5 -33t33.5 -76v-489q0 -174 -128 -300t-304 -126q-174 0 -300 125t-126 301zM406 1210q0 20 16 45l117 181q37 59 98 59 q51 0 99 -25.5t48 -54.5q0 -31 -34 -61l-138 -131q-59 -55 -145 -56q-61 0 -61 43z" />
<glyph unicode="&#xfb;" d="M170 426v489q0 43 31.5 76t77 33t77 -33t31.5 -76v-489q0 -88 60.5 -148.5t148.5 -60.5t150.5 60.5t64.5 148.5v489q0 43 30.5 76t76.5 33q43 0 76.5 -33t33.5 -76v-489q0 -174 -128 -300t-304 -126q-174 0 -300 125t-126 301zM285 1208q0 16 24 49l135 170q49 59 119 60 h74q72 0 119 -60l135 -170q25 -33 24 -49q0 -41 -59 -41q-84 0 -151 56l-107 92l-106 -92q-66 -55 -152 -56q-55 0 -55 41z" />
<glyph unicode="&#xfc;" d="M170 426v489q0 43 31.5 76t77 33t77 -33t31.5 -76v-489q0 -88 60.5 -148.5t148.5 -60.5t150.5 60.5t64.5 148.5v489q0 43 30.5 76t76.5 33q43 0 76.5 -33t33.5 -76v-489q0 -174 -128 -300t-304 -126q-174 0 -300 125t-126 301zM262 1296.5q0 55.5 38 94.5t93.5 39t94 -39 t38.5 -94.5t-38.5 -93.5t-94 -38t-93.5 38t-38 93.5zM672 1296.5q0 55.5 38 94.5t93 39t94 -39t39 -94.5t-39 -93.5t-94 -38t-93 38t-38 93.5z" />
<glyph unicode="&#xfd;" horiz-adv-x="1204" d="M106 432v483q0 45 32 77t75 32q47 0 78 -30.5t31 -78.5v-483q0 -88 62 -148.5t150.5 -60.5t149.5 60.5t61 148.5v483q0 47 31 78t76 31t78 -31.5t33 -77.5v-483v-291q0 -205 -142.5 -347t-347.5 -142q-109 0 -211 51q-43 18 -57.5 60t4.5 85q20 37 64 51.5t81 -5.5 q61 -29 119 -29q90 2 161 54t95 132q-86 -49 -194 -49q-176 0 -302.5 127t-126.5 303zM385 1210q0 20 16 45l117 181q37 59 98 59q51 0 99.5 -25.5t48.5 -54.5q0 -31 -35 -61l-137 -131q-59 -55 -146 -56q-61 0 -61 43z" />
<glyph unicode="&#xfe;" horiz-adv-x="1351" />
<glyph unicode="&#xff;" horiz-adv-x="1204" d="M106 432v483q0 45 32 77t75 32q47 0 78 -30.5t31 -78.5v-483q0 -88 62 -148.5t150.5 -60.5t149.5 60.5t61 148.5v483q0 47 31 78t76 31t78 -31.5t33 -77.5v-483v-291q0 -205 -142.5 -347t-347.5 -142q-109 0 -211 51q-43 18 -57.5 60t4.5 85q20 37 64 51.5t81 -5.5 q61 -29 119 -29q90 2 161 54t95 132q-86 -49 -194 -49q-176 0 -302.5 127t-126.5 303zM197 1298.5q0 55.5 37.5 94.5t93 39t94.5 -39t39 -94.5t-39 -93.5t-94.5 -38t-93 38t-37.5 93.5zM606 1298.5q0 55.5 38 94.5t93.5 39t94 -39t38.5 -94.5t-38.5 -93.5t-94 -38t-93.5 38 t-38 93.5z" />
<glyph unicode="&#x152;" horiz-adv-x="2955" d="M150 737q0 303 202 518q203 219 502 220q139 0 268 -58.5t221 -161.5q2 -4 9 -10v76q0 47 32.5 80t79.5 33h670q45 0 79 -33t34 -80t-34 -81t-79 -34h-555v-375h477q45 0 79 -33.5t34 -78.5q0 -47 -33 -81t-80 -34h-477v-377h555q45 0 79 -33.5t34 -80.5q0 -45 -34 -79 t-79 -34h-664l-4 2l-2 -2q-47 0 -79.5 33t-32.5 80v114l-9 -8q-92 -102 -221 -160.5t-268 -58.5q-145 0 -275 58.5t-227 160.5q-202 213 -202 518zM383 737q0 -213 139 -356q137 -147 332 -148q186 0 324 148q139 145 139 356q0 209 -139 359q-135 145 -324 145 q-197 0 -332 -145q-139 -146 -139 -359z" />
<glyph unicode="&#x153;" horiz-adv-x="2160" d="M119 520q0 211 143 367q147 158 359 157q215 0 352 -157q37 -41 63 -84q70 111 182.5 176t247.5 65q205 0 348.5 -137t155.5 -346v-12q0 -14 -2 -19q-4 -37 -34.5 -60.5t-73.5 -23.5h-666q18 -88 72 -137q33 -37 89 -63.5t111 -30.5q137 -10 217 53q33 33 84.5 33 t73.5 -27q25 -29 28 -63.5t-28 -73.5q-150 -137 -375 -137q-133 0 -244.5 63.5t-181.5 172.5q-33 -49 -67 -84q-137 -158 -352 -158q-211 0 -359 158q-143 149 -143 368zM344 520q0 -127 80 -219q82 -82 197 -82q111 0 192 82q84 94 84 219t-84 215q-84 84 -192 84 q-113 0 -197 -84q-80 -90 -80 -215zM1184 625h592q-18 74 -101.5 142.5t-208.5 78.5q-121 -6 -194.5 -74.5t-87.5 -146.5z" />
<glyph unicode="&#x178;" horiz-adv-x="1466" d="M127 1323q6 45 45 73.5t84 21.5t72 -46l350 -479l350 479q29 39 75 46t83 -21q37 -27 44 -73t-20 -83l-419 -575v-553q0 -47 -33 -80t-80 -33q-45 0 -79 33t-34 80v553l-415 575q-29 37 -23 82zM340 1712q0 55 38 94t93 39t94 -39t39 -94t-39 -93t-94 -38t-93 38t-38 93z M750 1712q0 55 37.5 94t93 39t94.5 -39t39 -94t-39 -93t-94.5 -38t-93 38t-37.5 93z" />
<glyph unicode="&#x2c6;" horiz-adv-x="1024" d="M289 1249q0 16 24 49l136 170q49 59 118 60h74q72 0 119 -60l135 -170q25 -33 25 -49q0 -41 -60 -41q-84 0 -151 56l-107 92l-106 -92q-66 -55 -152 -56q-55 0 -55 41z" />
<glyph unicode="&#x2dc;" horiz-adv-x="1024" d="M215 1262q0 18 8 47q35 94 83 140t126 46q61 0 161.5 -41t133.5 -41q59 0 94 66q27 41 68 41q31 0 53.5 -20.5t22.5 -47.5q0 -18 -9 -47q-35 -94 -83 -140t-125 -46q-61 0 -162 40.5t-133 40.5q-59 0 -95 -65q-27 -41 -67 -41q-31 0 -53.5 20.5t-22.5 47.5z" />
<glyph unicode="&#x2000;" horiz-adv-x="972" />
<glyph unicode="&#x2001;" horiz-adv-x="1945" />
<glyph unicode="&#x2002;" horiz-adv-x="972" />
<glyph unicode="&#x2003;" horiz-adv-x="1945" />
<glyph unicode="&#x2004;" horiz-adv-x="647" />
<glyph unicode="&#x2005;" horiz-adv-x="485" />
<glyph unicode="&#x2006;" horiz-adv-x="323" />
<glyph unicode="&#x2007;" horiz-adv-x="323" />
<glyph unicode="&#x2008;" horiz-adv-x="241" />
<glyph unicode="&#x2009;" horiz-adv-x="389" />
<glyph unicode="&#x200a;" horiz-adv-x="106" />
<glyph unicode="&#x2010;" horiz-adv-x="835" d="M135 627q0 51 36 87t85 36h385q49 0 85 -36t36 -87q0 -49 -36 -85t-85 -36h-385q-49 0 -85 36t-36 85z" />
<glyph unicode="&#x2011;" horiz-adv-x="835" d="M135 627q0 51 36 87t85 36h385q49 0 85 -36t36 -87q0 -49 -36 -85t-85 -36h-385q-49 0 -85 36t-36 85z" />
<glyph unicode="&#x2012;" horiz-adv-x="835" d="M135 627q0 51 36 87t85 36h385q49 0 85 -36t36 -87q0 -49 -36 -85t-85 -36h-385q-49 0 -85 36t-36 85z" />
<glyph unicode="&#x2013;" horiz-adv-x="1081" d="M135 627q0 49 35 83.5t82 34.5h639q47 0 82 -34.5t35 -83.5q0 -47 -35 -82t-82 -35h-639q-47 0 -82 35t-35 82z" />
<glyph unicode="&#x2014;" horiz-adv-x="1839" d="M135 627q0 49 35 83.5t82 34.5h1397q47 0 81.5 -34.5t34.5 -83.5q0 -47 -34.5 -82t-81.5 -35h-1397q-47 0 -82 35t-35 82z" />
<glyph unicode="&#x2018;" horiz-adv-x="471" d="M158 1034v21q0 201 102 299q84 88 193 88q63 0 63 -58q0 -41 -49 -55q-145 -45 -139 -182q49 -14 82.5 -51t33.5 -88v-17q0 -59 -38.5 -98t-100.5 -39q-68 0 -107.5 49t-39.5 131z" />
<glyph unicode="&#x2019;" horiz-adv-x="471" d="M121 913q0 41 47 56q145 45 139 184q-49 12 -83 48t-34 89v17q0 59 39 98t101 39q68 0 107.5 -49t39.5 -131v-21q0 -199 -100 -299q-88 -88 -193 -88q-63 0 -63 57z" />
<glyph unicode="&#x201a;" horiz-adv-x="471" d="M111 -240q0 45 47 56q145 47 139 184q-49 14 -83 51t-34 88v17q0 59 39 98t100 39q70 0 109 -48t39 -132v-23q0 -195 -100 -299q-92 -88 -193 -88q-63 0 -63 57z" />
<glyph unicode="&#x201c;" horiz-adv-x="1069" d="M125 1034v21q0 201 102 299q84 88 193 88q63 0 63 -58q0 -41 -49 -55q-145 -45 -139 -182q49 -14 83 -51t34 -88v-17q0 -59 -39 -98t-101 -39q-68 0 -107.5 49t-39.5 131zM600 1034v21q0 199 100 299q88 88 193 88q66 0 65 -58q0 -41 -49 -55q-145 -45 -139 -182 q49 -14 83 -51t34 -88v-17q0 -59 -39 -98t-100 -39q-68 0 -108 49t-40 131z" />
<glyph unicode="&#x201d;" horiz-adv-x="1069" d="M121 913q0 41 47 56q145 45 139 184q-49 12 -83 48t-34 89v17q0 59 39 98t101 39q68 0 107.5 -49t39.5 -131v-21q0 -199 -100 -299q-88 -88 -193 -88q-63 0 -63 57zM594 913q0 41 49 56q145 45 139 184q-49 12 -82.5 48t-33.5 89v17q0 59 38.5 98t100.5 39 q68 0 107.5 -49t39.5 -131v-21q0 -201 -102 -299q-84 -88 -193 -88q-63 0 -63 57z" />
<glyph unicode="&#x201e;" horiz-adv-x="839" d="M111 -240q0 45 47 56q145 47 139 184q-49 14 -83 51t-34 88v17q0 59 39 98t100 39q70 0 109 -48t39 -132v-23q0 -195 -100 -299q-92 -88 -193 -88q-63 0 -63 57zM584 -240q0 45 49 56q145 47 139 184q-49 14 -83 51t-34 88v17q0 59 39 98t101 39q68 0 107.5 -49 t39.5 -131v-23q0 -197 -102 -299q-88 -88 -193 -88q-63 0 -63 57z" />
<glyph unicode="&#x2022;" horiz-adv-x="962" d="M227 719v4q0 119 86 204t205 85q117 0 203 -85t86 -204v-4q0 -119 -85 -203t-204 -84q-121 0 -206 84t-85 203z" />
<glyph unicode="&#x2026;" horiz-adv-x="1392" d="M168 137.5q0 63.5 44 108.5t107.5 45t108.5 -45t45 -108.5t-45 -107.5t-108.5 -44t-107.5 44t-44 107.5zM756 137.5q0 63.5 44 108.5t107.5 45t108.5 -45t45 -108.5t-45 -107.5t-108.5 -44t-107.5 44t-44 107.5zM1343 137.5q0 63.5 44.5 108.5t108 45t108.5 -45 t45 -108.5t-45 -107.5t-108.5 -44t-108 44t-44.5 107.5z" />
<glyph unicode="&#x202f;" horiz-adv-x="389" />
<glyph unicode="&#x2039;" horiz-adv-x="636" d="M113 539q0 33 30 73l265 338q35 45 86 45q43 0 71.5 -29.5t30.5 -72.5q0 -37 -27 -70l-219 -286l215 -279q29 -33 29 -70q0 -43 -28.5 -72.5t-71.5 -29.5q-57 0 -93 49l-258 332q-30 41 -30 72z" />
<glyph unicode="&#x203a;" horiz-adv-x="636" d="M137 893q2 43 31 72.5t72 29.5q51 0 86 -45l264 -338q31 -41 31 -73q0 -31 -31 -72l-258 -332q-35 -49 -92 -49q-43 0 -72 29.5t-29 72.5q0 37 29 70l215 279l-219 286q-27 33 -27 70z" />
<glyph unicode="&#x205f;" horiz-adv-x="485" />
<glyph unicode="&#x2122;" horiz-adv-x="1413" d="M45 1386.5q0 20.5 13.5 34t33.5 13.5h375q18 0 32.5 -13.5t14.5 -34t-14.5 -36t-32.5 -15.5h-139v-467q0 -18 -13.5 -32.5t-34 -14.5t-35 14.5t-14.5 32.5v467h-139q-20 0 -33.5 15.5t-13.5 36zM637 868v518q0 20 14.5 34t32.5 14h4q23 0 39 -21l172 -242l172 242 q20 20 41 21h2q49 -4 49 -48v-518q0 -18 -14 -32.5t-34.5 -14.5t-35 14.5t-14.5 32.5v371l-125 -176q-16 -20 -41 -21q-27 0 -41 21l-127 176v-371q0 -18 -13 -32.5t-34 -14.5q-18 0 -32.5 14.5t-14.5 32.5z" />
<glyph unicode="&#xe000;" horiz-adv-x="1010" d="M0 1010h1010v-1010h-1010v1010z" />
<glyph unicode="&#xfb01;" horiz-adv-x="1316" d="M934 111v798q0 49 31.5 81t78.5 32t79 -32t32 -81v-798q0 -47 -32 -79t-79 -32q-45 0 -77.5 33t-32.5 78zM934 1280v43q0 45 32.5 78t77.5 33q47 0 79 -32t32 -79v-43q0 -47 -32 -80t-79 -33q-45 0 -77.5 33t-32.5 80zM133 950q0 47 34 80t81 33h53v29q0 125 39 200 q45 96 147 127q55 16 123 17q45 0 79 -34t34 -79q0 -47 -33 -81t-80 -34q-41 0 -53 -6q-8 -2 -12 -6q-4 0 -11.5 -27.5t-7.5 -76.5v-29h62q47 0 79.5 -33t32.5 -80q0 -45 -32.5 -78.5t-79.5 -33.5h-62v-723q0 -47 -32.5 -80t-79.5 -33t-80 33t-33 80v723h-53q-47 0 -81 32.5 t-34 79.5z" />
<glyph unicode="&#xfb02;" horiz-adv-x="1251" d="M946 113v1208q0 47 32.5 80t80 33t81 -33t33.5 -80v-1208q0 -47 -33.5 -80t-81 -33t-80 33t-32.5 80zM133 950q0 47 34 80t81 33h53v29q0 125 39 200q45 96 147 127q55 16 123 17q45 0 79 -34t34 -79q0 -47 -33 -81t-80 -34q-41 0 -53 -6q-8 -2 -12 -6q-4 0 -11.5 -27.5 t-7.5 -76.5v-29h62q47 0 79.5 -33t32.5 -80q0 -45 -32.5 -78.5t-79.5 -33.5h-62v-723q0 -47 -32.5 -80t-79.5 -33t-80 33t-33 80v723h-53q-47 0 -81 32.5t-34 79.5z" />
<glyph unicode="&#xfb03;" horiz-adv-x="2058" d="M1676 111v798q0 49 31.5 81t78.5 32t79 -32t32 -81v-798q0 -47 -32 -79t-79 -32q-45 0 -77.5 33t-32.5 78zM1676 1280v43q0 45 32.5 78t77.5 33q47 0 79 -32t32 -79v-43q0 -47 -32 -80t-79 -33q-45 0 -77.5 33t-32.5 80zM874 950q0 47 34 80t81 33h53v29q0 125 39 200 q45 96 147 127q55 16 123 17q45 0 79 -34t34 -79q0 -47 -33 -81t-80 -34q-41 0 -53 -6q-8 -2 -12 -6q-4 0 -11.5 -27.5t-7.5 -76.5v-29h62q47 0 79.5 -33t32.5 -80q0 -45 -32.5 -78.5t-79.5 -33.5h-62v-723q0 -47 -32.5 -80t-79.5 -33t-80 33t-33 80v723h-53q-47 0 -81 32.5 t-34 79.5zM133 950q0 47 34 80t81 33h53v29q0 125 39 200q45 96 147 127q55 16 123 17q45 0 79 -34t34 -79q0 -47 -33 -81t-80 -34q-41 0 -53 -6q-8 -2 -12 -6q-4 0 -11.5 -27.5t-7.5 -76.5v-29h62q47 0 79.5 -33t32.5 -80q0 -45 -32.5 -78.5t-79.5 -33.5h-62v-723 q0 -47 -32.5 -80t-79.5 -33t-80 33t-33 80v723h-53q-47 0 -81 32.5t-34 79.5z" />
<glyph unicode="&#xfb04;" horiz-adv-x="1992" d="M1688 113v1208q0 47 32.5 80t80 33t81 -33t33.5 -80v-1208q0 -47 -33.5 -80t-81 -33t-80 33t-32.5 80zM874 950q0 47 34 80t81 33h53v29q0 125 39 200q45 96 147 127q55 16 123 17q45 0 79 -34t34 -79q0 -47 -33 -81t-80 -34q-41 0 -53 -6q-8 -2 -12 -6q-4 0 -11.5 -27.5 t-7.5 -76.5v-29h62q47 0 79.5 -33t32.5 -80q0 -45 -32.5 -78.5t-79.5 -33.5h-62v-723q0 -47 -32.5 -80t-79.5 -33t-80 33t-33 80v723h-53q-47 0 -81 32.5t-34 79.5zM133 950q0 47 34 80t81 33h53v29q0 125 39 200q45 96 147 127q55 16 123 17q45 0 79 -34t34 -79 q0 -47 -33 -81t-80 -34q-41 0 -53 -6q-8 -2 -12 -6q-4 0 -11.5 -27.5t-7.5 -76.5v-29h62q47 0 79.5 -33t32.5 -80q0 -45 -32.5 -78.5t-79.5 -33.5h-62v-723q0 -47 -32.5 -80t-79.5 -33t-80 33t-33 80v723h-53q-47 0 -81 32.5t-34 79.5z" />
</font>
</defs>
</svg>
